Rss
Calendar
«    November 2017    »
MonTueWedThuFriSatSun
 12345
6789101112
13141516171819
20212223242526
27282930 
» » IT (2017) Hindi - Untouched - Pre-DVD - NTSC - MP3 [TT-Exclusive]
  • Author: wroser
  • |
  • Comments: 0
  • |
  • Views: 31
IT (2017) Hindi - Untouched - Pre-DVD - NTSC - MP3 [TT-Exclusive]






General
Format                      : MPEG-PS
File size                   : 720 MiB
Duration                    : 2 h 8 min
Overall bit rate mode       : Variable
Overall bit rate            : 782 kb/s
Writing library             : encoded by TMPGEnc Video Mastering Works 5 Version. 5.0.5.32

Video
ID                          : 224 (0xE0)
Format                      : MPEG Video
Format version              : Version 2
Format profile              : Main@Main
Format settings, BVOP       : Yes
Format settings, Matrix     : Custom
Format settings, GOP        : Variable
Duration                    : 2 h 8 min
Bit rate mode               : Variable
Bit rate                    : 655 kb/s
Maximum bit rate            : 8 000 kb/s
Width                       : 352 pixels
Height                      : 288 pixels
Display aspect ratio        : 4:3
Frame rate                  : 25.000 FPS
Standard                    : NTSC
Color space                 : YUV
Chroma subsampling          : 4:2:0
Bit depth                   : 8 bits
Scan type                   : Progressive
Compression mode            : Lossy
Bits/(Pixel*Frame)          : 0.258
Time code of first frame    : 00:00:00:00
Time code source            : Group of pictures header
GOP, Open/Closed            : Open
GOP, Open/Closed of first f : Closed
Stream size                 : 603 MiB (84%)
Writing library             : TMPGEnc Video Mastering Works 5 Version. 5.0.5.32

Audio
ID                          : 192 (0xC0)
Format                      : MPEG Audio
Format version              : Version 1
Format profile              : Layer 2
Duration                    : 2 h 8 min
Bit rate mode               : Constant
Bit rate                    : 112 kb/s
Channel(s)                  : 2 channels
Sampling rate               : 48.0 kHz
Compression mode            : Lossy
Stream size                 : 103 MiB (14%)


IT (2017) Hindi - Untouched - Pre-DVD - NTSC - MP3 [TT-Exclusive]IT (2017) Hindi - Untouched - Pre-DVD - NTSC - MP3 [TT-Exclusive]IT (2017) Hindi - Untouched - Pre-DVD - NTSC - MP3 [TT-Exclusive]IT (2017) Hindi - Untouched - Pre-DVD - NTSC - MP3 [TT-Exclusive]IT (2017) Hindi - Untouched - Pre-DVD - NTSC - MP3 [TT-Exclusive]IT (2017) Hindi - Untouched - Pre-DVD - NTSC - MP3 [TT-Exclusive]IT (2017) Hindi - Untouched - Pre-DVD - NTSC - MP3 [TT-Exclusive]

Buy HeroUpload Premium and Support Us.


[B]Single Direct Fast Link[/B]

http://www.heroupload.com/c4d41451776cbc30/IT.2017.Hindi.Untouched.Pre-DVD.MP3-TT.rar



http://filefloater.com/5S1/IT.2017.Hindi.Untouched.Pre-DVD.MP3-TT.rar




Add a comment

Name:* E-Mail:*
Bold Italic Underline Strike | Align left Center Align right | Insert smilies Insert link URLInsert protected URL Select color | Add Hidden Text Insert Quote Convert selected text from selection to Cyrillic (Russian) alphabet Insert spoiler
Enter the code below: *