Rss
Calendar
«    June 2018    »
MonTueWedThuFriSatSun
 123
45678910
11121314151617
18192021222324
252627282930 
» » Feral (2018) 1080p AMZN WEBRip DDP5.1 x264-NTG
  • Author: wroser
  • |
  • Comments: 1
  • |
  • Views: 111
Feral (2018) 1080p AMZN WEBRip DDP5.1 x264-NTG





http://imdb.com/title/tt4974778/

Video
ID                                       : 1
Format                                   : AVC
Format/Info                              : Advanced Video Codec
Format profile                           : High@L4
Format settings                          : CABAC / 4 Ref Frames
Format settings, CABAC                   : Yes
Format settings, ReFrames                : 4 frames
Codec ID                                 : V_MPEG4/ISO/AVC
Duration                                 : 1 h 31 min
Bit rate mode                            : Variable
Bit rate                                 : 6 154 kb/s
Maximum bit rate                         : 15.0 Mb/s
Width                                    : 1 920 pixels
Height                                   : 816 pixels
Display aspect ratio                     : 2.35:1
Frame rate mode                          : Constant
Frame rate                               : 23.976 (24000/1001) FPS
Color space                              : YUV
Chroma subsampling                       : 4:2:0
Bit depth                                : 8 bits
Scan type                                : Progressive
Bits/(Pixel*Frame)                       : 0.164
Stream size                              : 3.94 GiB (91%)
Default                                  : Yes
Forced                                   : No
Color range                              : Limited
Color primaries                          : BT.709
Transfer characteristics                 : BT.709
Matrix coefficients                      : BT.709

Audio
ID                                       : 2
Format                                   : E-AC-3
Format/Info                              : Enhanced Audio Coding 3
Codec ID                                 : A_EAC3
Duration                                 : 1 h 31 min
Bit rate mode                            : Constant
Bit rate                                 : 640 kb/s
Channel(s)                               : 6 channels
Channel positions                        : Front: L C R, Side: L R, LFE
Sampling rate                            : 48.0 kHz
Frame rate                               : 187.500 FPS (256 SPF)
Compression mode                         : Lossy
Stream size                              : 420 MiB (9%)
Language                                 : English
Service kind                             : Complete Main
Default                                  : Yes
Forced                                   : No

Text #1
ID                                       : 3
Format                                   : UTF-8
Codec ID                                 : S_TEXT/UTF8
Codec ID/Info                            : UTF-8 Plain Text
Duration                                 : 1 h 24 min
Bit rate                                 : 35 b/s
Count of elements                        : 914
Stream size                              : 22.0 KiB (0%)
Language                                 : English
Default                                  : No
Forced                                   : No

Text #2
ID                                       : 4
Format                                   : UTF-8
Codec ID                                 : S_TEXT/UTF8
Codec ID/Info                            : UTF-8 Plain Text
Duration                                 : 1 h 30 min
Bit rate                                 : 39 b/s
Count of elements                        : 1216
Stream size                              : 26.6 KiB (0%)
Title                                    : SDH
Language                                 : English
Default                                  : No
Forced                                   : No


Feral (2018) 1080p AMZN WEBRip DDP5.1 x264-NTG

SINGLE DIRECT FAST LINKS
http://www.heroupload.us/bf690b7d126b9452/Feral.2018.1080p.AMZN.WEB-DL.DDP5.1.H.264-NTG.mkv


http://filefloater.com/1jew/Feral.2018.1080p.AMZN.WEB-DL.DDP5.1.H.264-NTG.mkv

1GB LINKS

http://www.heroupload.us/ef45ef260b808cbd/Feral.2018.1080p.AMZN.WEB-DL.DDP5.1.H.264-NTG.part1.rar
http://www.heroupload.us/d113f43c2bae91d1/Feral.2018.1080p.AMZN.WEB-DL.DDP5.1.H.264-NTG.part2.rar
http://www.heroupload.us/36d163074de2b391/Feral.2018.1080p.AMZN.WEB-DL.DDP5.1.H.264-NTG.part3.rar
http://www.heroupload.us/20eeb4cf88aa63da/Feral.2018.1080p.AMZN.WEB-DL.DDP5.1.H.264-NTG.part4.rar
http://www.heroupload.us/a82f0035d357d42f/Feral.2018.1080p.AMZN.WEB-DL.DDP5.1.H.264-NTG.part5.rar



http://filefloater.com/1jex/Feral.2018.1080p.AMZN.WEB-DL.DDP5.1.H.264-NTG.part1.rar
http://filefloater.com/1jey/Feral.2018.1080p.AMZN.WEB-DL.DDP5.1.H.264-NTG.part2.rar
http://filefloater.com/1jez/Feral.2018.1080p.AMZN.WEB-DL.DDP5.1.H.264-NTG.part3.rar
http://filefloater.com/1jeA/Feral.2018.1080p.AMZN.WEB-DL.DDP5.1.H.264-NTG.part4.rar
http://filefloater.com/1jeB/Feral.2018.1080p.AMZN.WEB-DL.DDP5.1.H.264-NTG.part5.rar

  • 1
Народ кто желает играть в современные игры на самых высоких настройках с динамичными теняими
даже на самых слабых ПК или ноутах. Без лагов и фризов (Но нужен более менее нормальный инет).
Читайте статья по настройке компа здесь.
Видео по установке и настройке смотрите тут.
Играю уже пол года на ведре 2005 г. Буду рад кому помог разорить буржуев игровой индустрии!!!

Add a comment

Name:* E-Mail:*
Bold Italic Underline Strike | Align left Center Align right | Insert smilies Insert link URLInsert protected URL Select color | Add Hidden Text Insert Quote Convert selected text from selection to Cyrillic (Russian) alphabet Insert spoiler
Enter the code below: *