Rss
Calendar
«    August 2018    »
MonTueWedThuFriSatSun
 12345
6789101112
13141516171819
20212223242526
2728293031 
» » Skyscraper (2018) 720p - CAMRip - x264 - MP3-AF Exclusive
  • Author: wroser
  • |
  • Comments: 0
  • |
  • Views: 84
Skyscraper (2018) 720p - CAMRip - x264 - MP3-AF Exclusive




General
Format                      : Matroska
Format version              : Version 4 / Version 2
File size                   : 858 MiB
Duration                    : 1 h 24 min
Overall bit rate            : 1 427 kb/s
Encoded date                : UTC 2018-07-13 03:12:11
Writing application         : mkvmerge v7.1.0 ('Good Love') 32bit built on Jul 27 2014 12:59:18
Writing library             : libebml v1.3.0 + libmatroska v1.4.1

Video
ID                          : 1
Format                      : AVC
Format/Info                 : Advanced Video Codec
Format profile              : High@L3.1
Format settings, CABAC      : Yes
Format settings, RefFrames  : 4 frames
Codec ID                    : V_MPEG4/ISO/AVC
Duration                    : 1 h 24 min
Bit rate                    : 1 327 kb/s
Width                       : 1 280 pixels
Height                      : 536 pixels
Display aspect ratio        : 2.40:1
Frame rate mode             : Constant
Frame rate                  : 29.970 (30000/1001) FPS
Color space                 : YUV
Chroma subsampling          : 4:2:0
Bit depth                   : 8 bits
Scan type                   : Progressive
Bits/(Pixel*Frame)          : 0.065
Stream size                 : 799 MiB (93%)
Writing library             : x264 core 148 r2744 b97ae06
Encoding settings           : cabac=1 / ref=3 / deblock=1:0:0 / analyse=0x3:0x113 / me=hex / subme=7 / psy=1 / psy_rd=1.00:0.00 / mixed_ref=1 / me_range=16 / chroma_me=1 / trellis=1 / 8x8dct=1 / cqm=0 / deadzone=21,11 / fast_pskip=1 / chroma_qp_offset=-2 / threads=17 / lookahead_threads=2 / sliced_threads=0 / nr=0 / decimate=1 / interlaced=0 / bluray_compat=0 / constrained_intra=0 / bframes=3 / b_pyramid=2 / b_adapt=1 / b_bias=0 / direct=1 / weightb=1 / open_gop=0 / weightp=2 / keyint=300 / keyint_min=29 / scenecut=40 / intra_refresh=0 / rc_lookahead=40 / rc=abr / mbtree=1 / bitrate=1327 / ratetol=1.0 / qcomp=0.60 / qpmin=0 / qpmax=69 / qpstep=4 / ip_ratio=1.40 / aq=1:1.00
Language                    : English
Default                     : Yes
Forced                      : No

Audio
ID                          : 2
Format                      : MPEG Audio
Format version              : Version 1
Format profile              : Layer 3
Mode                        : Joint stereo
Mode extension              : MS Stereo
Codec ID                    : A_MPEG/L3
Codec ID/Hint               : MP3
Duration                    : 1 h 24 min
Bit rate mode               : Constant
Bit rate                    : 96.0 kb/s
Channel(s)                  : 2 channels
Sampling rate               : 48.0 kHz
Frame rate                  : 41.667 FPS (1152 SPF)
Compression mode            : Lossy
Stream size                 : 57.7 MiB (7%)
Language                    : English
Default                     : Yes
Forced                      : No



Skyscraper (2018) 720p - CAMRip - x264 - MP3-AF ExclusiveSkyscraper (2018) 720p - CAMRip - x264 - MP3-AF ExclusiveSkyscraper (2018) 720p - CAMRip - x264 - MP3-AF ExclusiveSkyscraper (2018) 720p - CAMRip - x264 - MP3-AF Exclusive

SINGLE DIRECT FAST LINKS

http://www.heroupload.us/2cca24699bd3e73a/Skyscraper.2018.English.HDCAM-Rip.720p.x264.MP3-Exclusive.mkv



http://filefloater.com/1JH3/Skyscraper.2018.English.HDCAM-Rip.720p.x264.MP3-Exclusive.mkv




Buy Premium From My Links & Support Me

Add a comment

Name:* E-Mail:*
Bold Italic Underline Strike | Align left Center Align right | Insert smilies Insert link URLInsert protected URL Select color | Add Hidden Text Insert Quote Convert selected text from selection to Cyrillic (Russian) alphabet Insert spoiler
Enter the code below: *