Rss
Calendar
«    August 2018    »
MonTueWedThuFriSatSun
 12345
6789101112
13141516171819
20212223242526
2728293031 
» » How It Ends (2018) 1080p NF WEBRip DDP5.1 x264-NTG
  • Author: wroser
  • |
  • Comments: 0
  • |
  • Views: 64
How It Ends (2018) 1080p NF WEBRip DDP5.1 x264-NTG





https://www.imdb.com/title/tt5246700/

General
Format                      : Matroska
Format version              : Version 4 / Version 2
File size                   : 2.84 GiB
Duration                    : 1 h 53 min
Overall bit rate mode       : Variable
Overall bit rate            : 3 590 kb/s
Encoded date                : UTC 2018-07-13 07:02:32
Writing application         : mkvmerge v21.0.0 ('Tardigrades Will Inherit The Earth') 64-bit
Writing library             : libebml v1.3.5 + libmatroska v1.4.8

Video
ID                          : 1
Format                      : AVC
Format/Info                 : Advanced Video Codec
Format profile              : Main@L4
Format settings, CABAC      : Yes
Format settings, RefFrames  : 3 frames
Codec ID                    : V_MPEG4/ISO/AVC
Duration                    : 1 h 53 min
Bit rate mode               : Variable
Bit rate                    : 3 160 kb/s
Maximum bit rate            : 4 740 kb/s
Width                       : 1 920 pixels
Height                      : 1 080 pixels
Display aspect ratio        : 16:9
Frame rate mode             : Constant
Frame rate                  : 23.976 (24000/1001) FPS
Color space                 : YUV
Chroma subsampling          : 4:2:0
Bit depth                   : 8 bits
Scan type                   : Progressive
Bits/(Pixel*Frame)          : 0.064
Stream size                 : 2.48 GiB (87%)
Writing library             : x264 core 148 r2715 7e75228
Encoding settings           : cabac=1 / ref=3 / deblock=1:0:0 / analyse=0x1:0x111 / me=umh / subme=10 / psy=1 / psy_rd=1.00:0.00 / mixed_ref=1 / me_range=24 / chroma_me=1 / trellis=2 / 8x8dct=0 / cqm=0 / deadzone=21,11 / fast_pskip=1 / chroma_qp_offset=-2 / threads=8 / lookahead_threads=1 / sliced_threads=0 / nr=0 / decimate=1 / interlaced=0 / bluray_compat=0 / stitchable=1 / constrained_intra=0 / bframes=2 / b_pyramid=0 / b_adapt=2 / b_bias=0 / direct=3 / weightb=1 / open_gop=0 / weightp=2 / keyint=48 / keyint_min=25 / scenecut=0 / intra_refresh=0 / rc_lookahead=48 / rc=2pass / mbtree=1 / bitrate=3160 / ratetol=1.0 / qcomp=0.50 / qpmin=6 / qpmax=51 / qpstep=4 / cplxblur=20.0 / qblur=0.5 / vbv_maxrate=4740 / vbv_bufsize=6320 / nal_hrd=vbr / filler=0 / ip_ratio=1.40 / aq=1:1.00
Default                     : Yes
Forced                      : No

Audio
ID                          : 2
Format                      : E-AC-3
Format/Info                 : Enhanced Audio Coding 3
Format profile              : E-AC-3+Atmos / E-AC-3
Format settings, Endianness : Big
Codec ID                    : A_EAC3
Duration                    : 1 h 52 min
Bit rate mode               : Constant
Bit rate                    : 448 kb/s
Channel(s)                  : 15 objects / 6 channels
Channel positions           : 15 objects / Front: L C R, Side: L R, LFE
Sampling rate               : 48.0 kHz
Frame rate                  : 187.500 FPS (256 SPF)
Compression mode            : Lossy
Stream size                 : 361 MiB (12%)
Title                       : English
Language                    : English
Service kind                : Complete Main
Default                     : Yes
Forced                      : No


How It Ends (2018) 1080p NF WEBRip DDP5.1 x264-NTGHow It Ends (2018) 1080p NF WEBRip DDP5.1 x264-NTGHow It Ends (2018) 1080p NF WEBRip DDP5.1 x264-NTG


SINGLE DIRECT FAST LINKS
http://www.heroupload.us/13e8cc3769c56fde/How.It.Ends.2018.1080p.NF.WEB-DL.DDP5.1.x264-NTG.mkv


http://filefloater.com/29Hz/How.It.Ends.2018.1080p.NF.WEB-DL.DDP5.1.x264-NTG.mkv

1GB LINKS

http://www.heroupload.us/158192dee5b30c7b/How.It.Ends.2018.1080p.NF.WEB-DL.DDP5.1.x264-NTG.part1.rar
http://www.heroupload.us/94e2b8b0a968b19c/How.It.Ends.2018.1080p.NF.WEB-DL.DDP5.1.x264-NTG.part2.rar
http://www.heroupload.us/4ded382a6dffca8f/How.It.Ends.2018.1080p.NF.WEB-DL.DDP5.1.x264-NTG.part3.rar



http://filefloater.com/2zIu/How.It.Ends.2018.1080p.NF.WEB-DL.DDP5.1.x264-NTG.part1.rar
http://filefloater.com/2zIv/How.It.Ends.2018.1080p.NF.WEB-DL.DDP5.1.x264-NTG.part2.rar
http://filefloater.com/2zIw/How.It.Ends.2018.1080p.NF.WEB-DL.DDP5.1.x264-NTG.part3.rar




Buy Premium From My Links & Support Me

Add a comment

Name:* E-Mail:*
Bold Italic Underline Strike | Align left Center Align right | Insert smilies Insert link URLInsert protected URL Select color | Add Hidden Text Insert Quote Convert selected text from selection to Cyrillic (Russian) alphabet Insert spoiler
Enter the code below: *