Rss
Calendar
«    August 2018    »
MonTueWedThuFriSatSun
 12345
6789101112
13141516171819
20212223242526
2728293031 
» » Deadpool 2 (2018) 1080p WEB-DL DD5.1 H264-FGT
  • Author: wroser
  • |
  • Comments: 0
  • |
  • Views: 30
Deadpool 2 (2018) 1080p WEB-DL DD5.1 H264-FGT







https://www.imdb.com/title/tt5463162/

Format                      : Matroska
Format version              : Version 4 / Version 2
File size                   : 4.08 GiB
Duration                    : 1 h 59 min
Overall bit rate            : 4 893 kb/s
Movie name                  : Deadpool.2.2018.1080p.WEB-DL.DD5.1.H264-FGT
Encoded date                : UTC 2018-08-07 04:44:43
Writing application         : mkvmerge v25.0.0 ('Prog Noir') 64-bit
Writing library             : libebml v1.3.6 + libmatroska v1.4.9
Cover                       : Yes
Attachments                 : small_cover.jpg / small_cover_land.jpg / cover.jpg / cover_land.jpg

Video
ID                          : 1
Format                      : AVC
Format/Info                 : Advanced Video Codec
Format profile              : High@L4
Format settings, CABAC      : Yes
Format settings, RefFrames  : 5 frames
Codec ID                    : V_MPEG4/ISO/AVC
Duration                    : 1 h 59 min
Bit rate                    : 4 508 kb/s
Width                       : 1 920 pixels
Height                      : 804 pixels
Display aspect ratio        : 2.40:1
Frame rate mode             : Constant
Frame rate                  : 23.976 (24000/1001) FPS
Color space                 : YUV
Chroma subsampling          : 4:2:0
Bit depth                   : 8 bits
Scan type                   : Progressive
Bits/(Pixel*Frame)          : 0.122
Stream size                 : 3.76 GiB (92%)
Title                       : Deadpool.2.2018.1080p.WEB-DL.DD5.1.H264-FGT
Language                    : English
Default                     : Yes
Forced                      : No
Color range                 : Limited
Color primaries             : BT.709
Transfer characteristics    : BT.709
Matrix coefficients         : BT.709

Audio
ID                          : 2
Format                      : AC-3
Format/Info                 : Audio Coding 3
Format settings, Endianness : Big
Codec ID                    : A_AC3
Duration                    : 1 h 59 min
Bit rate mode               : Constant
Bit rate                    : 384 kb/s
Channel(s)                  : 6 channels
Channel positions           : Front: L C R, Side: L R, LFE
Sampling rate               : 48.0 kHz
Frame rate                  : 31.250 FPS (1536 SPF)
Bit depth                   : 16 bits
Compression mode            : Lossy
Delay relative to video     : -43 ms
Stream size                 : 328 MiB (8%)
Title                       : Deadpool.2.2018.1080p.WEB-DL.DD5.1.H264-FGT
Language                    : English
Service kind                : Complete Main
Default                     : Yes
Forced                      : No




Deadpool 2 (2018) 1080p WEB-DL DD5.1 H264-FGTDeadpool 2 (2018) 1080p WEB-DL DD5.1 H264-FGTDeadpool 2 (2018) 1080p WEB-DL DD5.1 H264-FGT

SINGLE DIRECT FAST LINKS
http://www.heroupload.us/e9525f7902bd40b6/Deadpool.2.2018.1080p.WEB-DL.DD5.1.H264-FGT.mkv


http://filefloater.com/U45/Deadpool.2.2018.1080p.WEB-DL.DD5.1.H264-FGT.mkv

1GB LINKS

http://www.heroupload.us/d36aff1bd14590d9/Deadpool.2.2018.1080p.WEB-DL.DD5.1.H264-FGT.part1.rar
http://www.heroupload.us/d2784a38d932b7ce/Deadpool.2.2018.1080p.WEB-DL.DD5.1.H264-FGT.part2.rar
http://www.heroupload.us/de76df44099fde77/Deadpool.2.2018.1080p.WEB-DL.DD5.1.H264-FGT.part3.rar
http://www.heroupload.us/b4b88fd81bdf2372/Deadpool.2.2018.1080p.WEB-DL.DD5.1.H264-FGT.part4.rar
http://www.heroupload.us/ecbe78cfaa070b5f/Deadpool.2.2018.1080p.WEB-DL.DD5.1.H264-FGT.part5.rar



http://filefloater.com/U46/Deadpool.2.2018.1080p.WEB-DL.DD5.1.H264-FGT.part1.rar
http://filefloater.com/U47/Deadpool.2.2018.1080p.WEB-DL.DD5.1.H264-FGT.part2.rar
http://filefloater.com/U48/Deadpool.2.2018.1080p.WEB-DL.DD5.1.H264-FGT.part3.rar
http://filefloater.com/U49/Deadpool.2.2018.1080p.WEB-DL.DD5.1.H264-FGT.part4.rar
http://filefloater.com/U4a/Deadpool.2.2018.1080p.WEB-DL.DD5.1.H264-FGT.part5.rar




Buy Premium From My Links & Support Me

Add a comment

Name:* E-Mail:*
Bold Italic Underline Strike | Align left Center Align right | Insert smilies Insert link URLInsert protected URL Select color | Add Hidden Text Insert Quote Convert selected text from selection to Cyrillic (Russian) alphabet Insert spoiler
Enter the code below: *