Rss
Calendar
«    August 2018    »
MonTueWedThuFriSatSun
 12345
6789101112
13141516171819
20212223242526
2728293031 
» » Deadpool 2 (2018) Super Duper Cut UNRATED 1080p AMZN WEBRip DDP5.1 x264-ION10
  • Author: wroser
  • |
  • Comments: 0
  • |
  • Views: 28
Deadpool 2 (2018) Super Duper Cut UNRATED 1080p AMZN WEBRip DDP5.1 x264-ION10





https://www.imdb.com/title/tt5463162/

Format                      : Matroska
Format version              : Version 4 / Version 2
File size                   : 9.52 GiB
Duration                    : 2 h 14 min
Overall bit rate            : 10.2 Mb/s
Movie name                  : Deadpool.2.2018.Super.Duper.Cut.UNRATED.1080p.AMZN.WEBRip.DDP5.1.x264-ION10
Encoded date                : UTC 2018-08-07 08:15:28
Writing application         : mkvmerge v25.0.0 ('Prog Noir') 64-bit
Writing library             : libebml v1.3.6 + libmatroska v1.4.9
Cover                       : Yes
Attachments                 : small_cover.jpg / small_cover_land.jpg / cover.jpg / cover_land.jpg / small_cover.jpg / small_cover_land.jpg / cover.jpg / cover_land.jpg

Video
ID                          : 1
Format                      : AVC
Format/Info                 : Advanced Video Codec
Format profile              : High@L4
Format settings, CABAC      : Yes
Format settings, RefFrames  : 4 frames
Codec ID                    : V_MPEG4/ISO/AVC
Duration                    : 2 h 14 min
Bit rate mode               : Constant
Bit rate                    : 10 000 kb/s
Width                       : 1 920 pixels
Height                      : 1 080 pixels
Display aspect ratio        : 16:9
Frame rate mode             : Constant
Frame rate                  : 23.976 (24000/1001) FPS
Color space                 : YUV
Chroma subsampling          : 4:2:0
Bit depth                   : 8 bits
Scan type                   : Progressive
Bits/(Pixel*Frame)          : 0.201
Stream size                 : 9.28 GiB (97%)
Title                       : Deadpool.2.2018.Super.Duper.Cut.UNRATED.1080p.AMZN.WEBRip.DDP5.1.x264-ION10
Language                    : English
Default                     : Yes
Forced                      : No
Color range                 : Limited
Color primaries             : BT.709
Transfer characteristics    : BT.709
Matrix coefficients         : BT.709

Audio
ID                          : 2
Format                      : E-AC-3
Format/Info                 : Enhanced Audio Coding 3
Format settings, Endianness : Big
Codec ID                    : A_EAC3
Duration                    : 2 h 14 min
Bit rate mode               : Constant
Bit rate                    : 256 kb/s
Channel(s)                  : 6 channels
Channel positions           : Front: L C R, Side: L R, LFE
Sampling rate               : 48.0 kHz
Frame rate                  : 187.500 FPS (256 SPF)
Compression mode            : Lossy
Delay relative to video     : 30 ms
Stream size                 : 245 MiB (3%)
Title                       : Deadpool.2.2018.Super.Duper.Cut.UNRATED.1080p.AMZN.WEBRip.DDP5.1.x264-ION10
Language                    : English
Service kind                : Complete Main
Default                     : Yes
Forced                      : No

Text
ID                          : 3
Format                      : UTF-8
Codec ID                    : S_TEXT/UTF8
Codec ID/Info               : UTF-8 Plain Text
Duration                    : 2 h 13 min
Bit rate                    : 69 b/s
Count of elements           : 2427
Stream size                 : 67.5 KiB (0%)
Language                    : English
Default                     : No
Forced                      : No



Deadpool 2 (2018) Super Duper Cut UNRATED 1080p AMZN WEBRip DDP5.1 x264-ION10Deadpool 2 (2018) Super Duper Cut UNRATED 1080p AMZN WEBRip DDP5.1 x264-ION10

SINGLE DIRECT FAST LINKS

http://www.heroupload.us/6f402a823fe61b55/Deadpool.2.2018.Super.Duper.Cut.UNRATED.1080p.AMZN.WEBRip.DDP5.1.x264-ION10.mkv


1GB LINKS


http://www.heroupload.us/13fd7a0d110a032b/Deadpool.2.2018.Super.Duper.Cut.UNRATED.1080p.AMZN.WEBRip.DDP5.1.x264-ION10.part01.rar
http://www.heroupload.us/d30cafc014ca7a01/Deadpool.2.2018.Super.Duper.Cut.UNRATED.1080p.AMZN.WEBRip.DDP5.1.x264-ION10.part02.rar
http://www.heroupload.us/9df9c4d2fca8faaa/Deadpool.2.2018.Super.Duper.Cut.UNRATED.1080p.AMZN.WEBRip.DDP5.1.x264-ION10.part03.rar
http://www.heroupload.us/710644e62a0168a8/Deadpool.2.2018.Super.Duper.Cut.UNRATED.1080p.AMZN.WEBRip.DDP5.1.x264-ION10.part04.rar
http://www.heroupload.us/28554464005b1875/Deadpool.2.2018.Super.Duper.Cut.UNRATED.1080p.AMZN.WEBRip.DDP5.1.x264-ION10.part05.rar
http://www.heroupload.us/add3a4590189ea88/Deadpool.2.2018.Super.Duper.Cut.UNRATED.1080p.AMZN.WEBRip.DDP5.1.x264-ION10.part06.rar
http://www.heroupload.us/70458933830c2e03/Deadpool.2.2018.Super.Duper.Cut.UNRATED.1080p.AMZN.WEBRip.DDP5.1.x264-ION10.part07.rar
http://www.heroupload.us/5d839c731caa631b/Deadpool.2.2018.Super.Duper.Cut.UNRATED.1080p.AMZN.WEBRip.DDP5.1.x264-ION10.part08.rar
http://www.heroupload.us/b98c354287d63007/Deadpool.2.2018.Super.Duper.Cut.UNRATED.1080p.AMZN.WEBRip.DDP5.1.x264-ION10.part09.rar
http://www.heroupload.us/194bb6ee0bdf571e/Deadpool.2.2018.Super.Duper.Cut.UNRATED.1080p.AMZN.WEBRip.DDP5.1.x264-ION10.part10.rar



http://filefloater.com/1K6E/Deadpool.2.2018.Super.Duper.Cut.UNRATED.1080p.AMZN.WEBRip.DDP5.1.x264-ION10.part01.rar
http://filefloater.com/1K6F/Deadpool.2.2018.Super.Duper.Cut.UNRATED.1080p.AMZN.WEBRip.DDP5.1.x264-ION10.part02.rar
http://filefloater.com/1K6G/Deadpool.2.2018.Super.Duper.Cut.UNRATED.1080p.AMZN.WEBRip.DDP5.1.x264-ION10.part03.rar
http://filefloater.com/1K6H/Deadpool.2.2018.Super.Duper.Cut.UNRATED.1080p.AMZN.WEBRip.DDP5.1.x264-ION10.part04.rar
http://filefloater.com/1K6I/Deadpool.2.2018.Super.Duper.Cut.UNRATED.1080p.AMZN.WEBRip.DDP5.1.x264-ION10.part05.rar
http://filefloater.com/1K6J/Deadpool.2.2018.Super.Duper.Cut.UNRATED.1080p.AMZN.WEBRip.DDP5.1.x264-ION10.part06.rar
http://filefloater.com/1K6K/Deadpool.2.2018.Super.Duper.Cut.UNRATED.1080p.AMZN.WEBRip.DDP5.1.x264-ION10.part07.rar
http://filefloater.com/1K6L/Deadpool.2.2018.Super.Duper.Cut.UNRATED.1080p.AMZN.WEBRip.DDP5.1.x264-ION10.part08.rar
http://filefloater.com/1K6M/Deadpool.2.2018.Super.Duper.Cut.UNRATED.1080p.AMZN.WEBRip.DDP5.1.x264-ION10.part09.rar
http://filefloater.com/1K6N/Deadpool.2.2018.Super.Duper.Cut.UNRATED.1080p.AMZN.WEBRip.DDP5.1.x264-ION10.part10.rar


Buy Premium From My Links & Support Me

Add a comment

Name:* E-Mail:*
Bold Italic Underline Strike | Align left Center Align right | Insert smilies Insert link URLInsert protected URL Select color | Add Hidden Text Insert Quote Convert selected text from selection to Cyrillic (Russian) alphabet Insert spoiler
Enter the code below: *