Rss
Calendar
«    September 2018    »
MonTueWedThuFriSatSun
 12
3456789
10111213141516
17181920212223
24252627282930
» » Pratiggya (1975) 480p - HD-DVDRip - AVC - AAC-Bollywooda2z
  • Author: wroser
  • |
  • Comments: 0
  • |
  • Views: 29
Pratiggya (1975) 480p - HD-DVDRip - AVC - AAC-Bollywooda2z



General
Complete name               : E:\Download C 2\1975\Pratiggya.mp4
Format                      : MPEG-4
Format profile              : Base Media
Codec ID                    : isom (isom)
File size                   : 1.58 GiB
Duration                    : 2 h 45 min
Overall bit rate mode       : Variable
Overall bit rate            : 1 368 kb/s
Encoded date                : UTC 2017-06-28 09:46:34
Tagged date                 : UTC 2017-06-28 09:46:34

Video
ID                          : 1
Format                      : AVC
Format/Info                 : Advanced Video Codec
Format profile              : Main@L3.1
Format settings, CABAC      : Yes
Format settings, RefFrames  : 8 frames
Codec ID                    : avc1
Codec ID/Info               : Advanced Video Coding
Duration                    : 2 h 45 min
Bit rate                    : 1 300 kb/s
Maximum bit rate            : 4 966 kb/s
Width                       : 716 pixels
Height                      : 478 pixels
Display aspect ratio        : 4:3
Original display aspect rat : 4:3
Frame rate mode             : Constant
Frame rate                  : 23.976 (24000/1001) FPS
Color space                 : YUV
Chroma subsampling          : 4:2:0
Bit depth                   : 8 bits
Scan type                   : Progressive
Bits/(Pixel*Frame)          : 0.158
Stream size                 : 1.50 GiB (95%)
Writing library             : x264 core 146 r2538 121396c
Encoding settings           : cabac=1 / ref=8 / deblock=1:-1:-1 / analyse=0x1:0x131 / me=umh / subme=9 / psy=1 / psy_rd=1.00:0.15 / mixed_ref=1 / me_range=16 / chroma_me=1 / trellis=2 / 8x8dct=0 / cqm=0 / deadzone=21,11 / fast_pskip=1 / chroma_qp_offset=-3 / threads=12 / lookahead_threads=1 / sliced_threads=0 / nr=0 / decimate=1 / interlaced=0 / bluray_compat=0 / constrained_intra=0 / bframes=3 / b_pyramid=2 / b_adapt=2 / b_bias=0 / direct=3 / weightb=1 / open_gop=0 / weightp=2 / keyint=240 / keyint_min=23 / scenecut=40 / intra_refresh=0 / rc_lookahead=60 / rc=2pass / mbtree=1 / bitrate=1300 / ratetol=1.0 / qcomp=0.60 / qpmin=0 / qpmax=69 / qpstep=4 / cplxblur=20.0 / qblur=0.5 / vbv_maxrate=4000 / vbv_bufsize=4000 / nal_hrd=none / filler=0 / ip_ratio=1.40 / aq=1:1.00
Encoded date                : UTC 2017-06-16 06:30:27
Tagged date                 : UTC 2017-06-28 09:46:44

Audio
ID                          : 2
Format                      : AAC
Format/Info                 : Advanced Audio Codec
Format profile              : LC
Codec ID                    : 40
Duration                    : 2 h 45 min
Bit rate mode               : Variable
Bit rate                    : 64.0 kb/s
Maximum bit rate            : 72.3 kb/s
Channel(s)                  : 2 channels
Channel positions           : Front: L R
Sampling rate               : 48.0 kHz
Frame rate                  : 46.875 FPS (1024 SPF)
Compression mode            : Lossy
Stream size                 : 75.6 MiB (5%)
Encoded date                : UTC 2017-06-28 09:37:14
Tagged date                 : UTC 2017-06-28 09:46:44



Pratiggya (1975) 480p - HD-DVDRip - AVC - AAC-Bollywooda2z
SINGLE DIRECT FAST LINKS

http://www.heroupload.us/6bc349166b5cd057/Pratiggya.mp4



http://filefloater.com/U9f/Pratiggya.mp4



Buy Premium From My Links & Support Me

Add a comment

Name:* E-Mail:*
Bold Italic Underline Strike | Align left Center Align right | Insert smilies Insert link URLInsert protected URL Select color | Add Hidden Text Insert Quote Convert selected text from selection to Cyrillic (Russian) alphabet Insert spoiler
Enter the code below: *