Rss
Calendar
«    November 2017    »
MonTueWedThuFriSatSun
 12345
6789101112
13141516171819
20212223242526
27282930 
» » Tubelight (2017) 1080p WEB-DL H264 AAC2.0 ESub-DDR Exclusive
  • Author: wroser
  • |
  • Comments: 0
  • |
  • Views: 63
Tubelight (2017) 1080p WEB-DL H264 AAC2.0 ESub-DDR Exclusive






General
Complete name               : Tubelight (2017) 1080p WEB-DL H264 AAC2.0 ESub-DDR.mp4
Format                      : MPEG-4
Format profile              : Base Media
Codec ID                    : isom (isom/iso2/avc1/mp41)
File size                   : 8.35 GiB
Duration                    : 2 h 9 min
Overall bit rate mode       : Constant
Overall bit rate            : 9 199 kb/s
Writing application         : Lavf54.63.104

Video
ID                          : 1
Format                      : AVC
Format/Info                 : Advanced Video Codec
Format profile              : High@L4
Format settings             : CABAC / 2 Ref Frames
Format settings, CABAC      : Yes
Format settings, RefFrames  : 2 frames
Codec ID                    : avc1
Codec ID/Info               : Advanced Video Coding
Duration                    : 2 h 9 min
Bit rate mode               : Constant
Bit rate                    : 9 000 kb/s
Width                       : 1 920 pixels
Height                      : 1 080 pixels
Display aspect ratio        : 16:9
Frame rate mode             : Variable
Frame rate                  : 29.970 (30000/1001) FPS
Minimum frame rate          : 29.970 FPS
Maximum frame rate          : 30.000 FPS
Color space                 : YUV
Chroma subsampling          : 4:2:0
Bit depth                   : 8 bits
Scan type                   : Progressive
Bits/(Pixel*Frame)          : 0.145
Stream size                 : 8.13 GiB (97%)
Color range                 : Limited
Matrix coefficients         : BT.709

Audio
ID                          : 2
Format                      : AAC
Format/Info                 : Advanced Audio Codec
Format profile              : LC
Codec ID                    : mp4a-40-2
Duration                    : 2 h 9 min
Bit rate mode               : Constant
Bit rate                    : 225 kb/s
Channel(s)                  : 2 channels
Channel positions           : Front: L R
Sampling rate               : 48.0 kHz
Frame rate                  : 46.875 FPS (1024 SPF)
Compression mode            : Lossy
Stream size                 : 210 MiB (2%)
Language                    : Hindi
Default                     : Yes




Tubelight (2017) 1080p WEB-DL H264 AAC2.0 ESub-DDR Exclusive
Tubelight (2017) 1080p WEB-DL H264 AAC2.0 ESub-DDR Exclusive
Tubelight (2017) 1080p WEB-DL H264 AAC2.0 ESub-DDR Exclusive
Tubelight (2017) 1080p WEB-DL H264 AAC2.0 ESub-DDR Exclusive
Tubelight (2017) 1080p WEB-DL H264 AAC2.0 ESub-DDR Exclusive
Tubelight (2017) 1080p WEB-DL H264 AAC2.0 ESub-DDR Exclusive
Tubelight (2017) 1080p WEB-DL H264 AAC2.0 ESub-DDR Exclusive
Tubelight (2017) 1080p WEB-DL H264 AAC2.0 ESub-DDR Exclusive
Tubelight (2017) 1080p WEB-DL H264 AAC2.0 ESub-DDR Exclusive
Tubelight (2017) 1080p WEB-DL H264 AAC2.0 ESub-DDR Exclusive
Tubelight (2017) 1080p WEB-DL H264 AAC2.0 ESub-DDR Exclusive
Tubelight (2017) 1080p WEB-DL H264 AAC2.0 ESub-DDR Exclusive


[B] SINGLE DIRECT FAST LINKS[/B]

http://www.heroupload.com/999bc74cb0baf8e5/Tubelight.2017.1080p.WEB-DL.H264.AAC2.0.ESub-DDR.mp4


[B]1GB LINKS[/B]


http://www.heroupload.com/2144bd6703448795/Tubelight.2017.1080p.WEB-DL.H264.AAC2.0.ESub-DDR.part01.rar
http://www.heroupload.com/24a24bb1ea712262/Tubelight.2017.1080p.WEB-DL.H264.AAC2.0.ESub-DDR.part02.rar
http://www.heroupload.com/77d07ba072545e26/Tubelight.2017.1080p.WEB-DL.H264.AAC2.0.ESub-DDR.part03.rar
http://www.heroupload.com/9b0cbd143b4d41e5/Tubelight.2017.1080p.WEB-DL.H264.AAC2.0.ESub-DDR.part04.rar
http://www.heroupload.com/eabf407baaa61595/Tubelight.2017.1080p.WEB-DL.H264.AAC2.0.ESub-DDR.part05.rar
http://www.heroupload.com/8c266706c77b4607/Tubelight.2017.1080p.WEB-DL.H264.AAC2.0.ESub-DDR.part06.rar
http://www.heroupload.com/3ed296d22bb5ab72/Tubelight.2017.1080p.WEB-DL.H264.AAC2.0.ESub-DDR.part07.rar
http://www.heroupload.com/f3e118d7e177ce57/Tubelight.2017.1080p.WEB-DL.H264.AAC2.0.ESub-DDR.part08.rar
http://www.heroupload.com/d90f6a8cef73a2bb/Tubelight.2017.1080p.WEB-DL.H264.AAC2.0.ESub-DDR.part09.rar
http://www.heroupload.com/fa2e7372444d62ce/Tubelight.2017.1080p.WEB-DL.H264.AAC2.0.ESub-DDR.srt



http://filefloater.com/8Aj/Tubelight.2017.1080p.WEB-DL.H264.AAC2.0.ESub-DDR.part01.rar
http://filefloater.com/8Ak/Tubelight.2017.1080p.WEB-DL.H264.AAC2.0.ESub-DDR.part02.rar
http://filefloater.com/8Al/Tubelight.2017.1080p.WEB-DL.H264.AAC2.0.ESub-DDR.part03.rar
http://filefloater.com/8Am/Tubelight.2017.1080p.WEB-DL.H264.AAC2.0.ESub-DDR.part04.rar
http://filefloater.com/8An/Tubelight.2017.1080p.WEB-DL.H264.AAC2.0.ESub-DDR.part05.rar
http://filefloater.com/8Ao/Tubelight.2017.1080p.WEB-DL.H264.AAC2.0.ESub-DDR.part06.rar
http://filefloater.com/8Ap/Tubelight.2017.1080p.WEB-DL.H264.AAC2.0.ESub-DDR.part07.rar
http://filefloater.com/8Aq/Tubelight.2017.1080p.WEB-DL.H264.AAC2.0.ESub-DDR.part08.rar
http://filefloater.com/8Ar/Tubelight.2017.1080p.WEB-DL.H264.AAC2.0.ESub-DDR.part09.rar
http://filefloater.com/8As/Tubelight.2017.1080p.WEB-DL.H264.AAC2.0.ESub-DDR.srt

Add a comment

Name:* E-Mail:*
Bold Italic Underline Strike | Align left Center Align right | Insert smilies Insert link URLInsert protected URL Select color | Add Hidden Text Insert Quote Convert selected text from selection to Cyrillic (Russian) alphabet Insert spoiler
Enter the code below: *