Rss
Calendar
«    May 2018    »
MonTueWedThuFriSatSun
 123456
78910111213
14151617181920
21222324252627
28293031 
» » Nanu Ki Jaanu (2018) 700MB - 1CDRip - pDVDRip - x264 - AAC-CineVood Exclusive
  • Author: wroser
  • |
  • Comments: 0
  • |
  • Views: 55
Nanu Ki Jaanu (2018) 700MB - 1CDRip - pDVDRip - x264 - AAC-CineVood Exclusive






General
Format                      : Matroska
Format version              : Version 4 / Version 2
File size                   : 719 MiB
Duration                    : 2 h 4 min
Overall bit rate            : 807 kb/s
Encoded date                : UTC 2018-04-20 15:29:29
Writing application         : mkvmerge v7.1.0 ('Good Love') 32bit built on Jul 27 2014 12:59:18
Writing library             : libebml v1.3.0 + libmatroska v1.4.1

Video
ID                          : 1
Format                      : AVC
Format/Info                 : Advanced Video Codec
Format profile              : Main@L4
Format settings, CABAC      : Yes
Format settings, RefFrames  : 4 frames
Codec ID                    : V_MPEG4/ISO/AVC
Duration                    : 2 h 4 min
Bit rate                    : 692 kb/s
Nominal bit rate            : 638 kb/s
Width                       : 648 pixels
Height                      : 288 pixels
Display aspect ratio        : 2.25:1
Frame rate mode             : Constant
Frame rate                  : 25.000 FPS
Color space                 : YUV
Chroma subsampling          : 4:2:0
Bit depth                   : 8 bits
Scan type                   : Progressive
Bits/(Pixel*Frame)          : 0.148
Stream size                 : 617 MiB (86%)
Writing library             : x264 core 148 r2708 86b7198
Encoding settings           : cabac=1 / ref=1 / deblock=1:0:0 / analyse=0x1:0x111 / me=hex / subme=2 / psy=1 / psy_rd=1.00:0.00 / mixed_ref=0 / me_range=16 / chroma_me=1 / trellis=0 / 8x8dct=0 / cqm=0 / deadzone=21,11 / fast_pskip=1 / chroma_qp_offset=0 / threads=9 / lookahead_threads=2 / sliced_threads=0 / nr=0 / decimate=1 / interlaced=0 / bluray_compat=0 / constrained_intra=0 / bframes=3 / b_pyramid=2 / b_adapt=1 / b_bias=0 / direct=1 / weightb=1 / open_gop=0 / weightp=1 / keyint=250 / keyint_min=25 / scenecut=40 / intra_refresh=0 / rc_lookahead=10 / rc=abr / mbtree=1 / bitrate=638 / ratetol=1.0 / qcomp=0.60 / qpmin=0 / qpmax=69 / qpstep=4 / vbv_maxrate=20000 / vbv_bufsize=25000 / nal_hrd=none / filler=0 / ip_ratio=1.40 / aq=1:1.00
Language                    : Hindi
Default                     : Yes
Forced                      : No
Color range                 : Limited
Color primaries             : BT.709
Transfer characteristics    : BT.709
Matrix coefficients         : BT.709

Audio
ID                          : 2
Format                      : AAC
Format/Info                 : Advanced Audio Codec
Format profile              : LC
Codec ID                    : A_AAC
Duration                    : 2 h 4 min
Bit rate                    : 112 kb/s
Channel(s)                  : 2 channels
Channel positions           : Front: L R
Sampling rate               : 44.1 kHz
Frame rate                  : 43.066 FPS (1024 SPF)
Compression mode            : Lossy
Delay relative to video     : -23 ms
Stream size                 : 100.0 MiB (14%)
Language                    : Hindi
Default                     : Yes
Forced                      : No




Nanu Ki Jaanu (2018) 700MB - 1CDRip - pDVDRip - x264 - AAC-CineVood ExclusiveNanu Ki Jaanu (2018) 700MB - 1CDRip - pDVDRip - x264 - AAC-CineVood ExclusiveNanu Ki Jaanu (2018) 700MB - 1CDRip - pDVDRip - x264 - AAC-CineVood ExclusiveNanu Ki Jaanu (2018) 700MB - 1CDRip - pDVDRip - x264 - AAC-CineVood ExclusiveNanu Ki Jaanu (2018) 700MB - 1CDRip - pDVDRip - x264 - AAC-CineVood Exclusive

SINGLE DIRECT FAST LINKS

http://www.heroupload.us/789bab8f960f5b78/Nanu.Ki.Jaanu.2018.Hindi.700MB.x264.1CD.AAC-Exclusive.mkv



http://filefloater.com/SLj/Nanu.Ki.Jaanu.2018.Hindi.700MB.x264.1CD.AAC-Exclusive.mkv





Add a comment

Name:* E-Mail:*
Bold Italic Underline Strike | Align left Center Align right | Insert smilies Insert link URLInsert protected URL Select color | Add Hidden Text Insert Quote Convert selected text from selection to Cyrillic (Russian) alphabet Insert spoiler
Enter the code below: *