Rss
Calendar
«    August 2018    »
MonTueWedThuFriSatSun
 12345
6789101112
13141516171819
20212223242526
2728293031 
» » Brothers (2015) 720p - BluRay - x264 - DD5.1-NhaNc3
  • Author: wroser
  • |
  • Comments: 0
  • |
  • Views: 19
Brothers (2015) 720p - BluRay - x264 - DD5.1-NhaNc3



Format                      : Matroska
Format version              : Version 2
File size                   : 3.12 GiB
Duration                    : 2 h 35 min
Overall bit rate            : 2 867 kb/s
Encoded date                : UTC 2015-12-04 22:32:19
Writing application         : mkvmerge v4.9.1 ('Ich will') built on Jul 11 2011 23:53:15
Writing library             : libebml v1.2.1 + libmatroska v1.1.1

Video
ID                          : 1
Format                      : AVC
Format/Info                 : Advanced Video Codec
Format profile              : High@L4.1
Format settings, CABAC      : Yes
Format settings, RefFrames  : 8 frames
Codec ID                    : V_MPEG4/ISO/AVC
Duration                    : 2 h 35 min
Bit rate                    : 2 485 kb/s
Width                       : 1 280 pixels
Height                      : 544 pixels
Display aspect ratio        : 2.35:1
Frame rate mode             : Constant
Frame rate                  : 24.000 FPS
Color space                 : YUV
Chroma subsampling          : 4:2:0
Bit depth                   : 8 bits
Scan type                   : Progressive
Bits/(Pixel*Frame)          : 0.149
Stream size                 : 2.64 GiB (85%)
Writing library             : x264 core 146 r2538 121396c
Encoding settings           : cabac=1 / ref=8 / deblock=1:0:0 / analyse=0x3:0x113 / me=umh / subme=9 / psy=1 / psy_rd=1.00:0.00 / mixed_ref=1 / me_range=16 / chroma_me=1 / trellis=1 / 8x8dct=1 / cqm=0 / deadzone=21,11 / fast_pskip=1 / chroma_qp_offset=-2 / threads=8 / lookahead_threads=1 / sliced_threads=0 / nr=0 / decimate=1 / interlaced=0 / bluray_compat=0 / constrained_intra=0 / bframes=5 / b_pyramid=2 / b_adapt=1 / b_bias=0 / direct=1 / weightb=1 / open_gop=0 / weightp=2 / keyint=250 / keyint_min=24 / scenecut=40 / intra_refresh=0 / rc_lookahead=40 / rc=2pass / mbtree=1 / bitrate=2485 / ratetol=1.0 / qcomp=0.60 / qpmin=0 / qpmax=69 / qpstep=4 / cplxblur=20.0 / qblur=0.5 / vbv_maxrate=20000 / vbv_bufsize=15000 / nal_hrd=none / filler=0 / ip_ratio=1.40 / aq=1:1.00
Language                    : English
Default                     : Yes
Forced                      : No
Color range                 : Limited
Color primaries             : BT.709
Transfer characteristics    : BT.709
Matrix coefficients         : BT.709

Audio
ID                          : 2
Format                      : AC-3
Format/Info                 : Audio Coding 3
Format settings, Endianness : Big
Codec ID                    : A_AC3
Duration                    : 2 h 35 min
Bit rate mode               : Constant
Bit rate                    : 384 kb/s
Channel(s)                  : 6 channels
Channel positions           : Front: L C R, Side: L R, LFE
Sampling rate               : 48.0 kHz
Frame rate                  : 31.250 FPS (1536 SPF)
Bit depth                   : 16 bits
Compression mode            : Lossy
Stream size                 : 428 MiB (13%)
Language                    : English
Service kind                : Complete Main
Default                     : Yes
Forced                      : Yes

Text
ID                          : 3
Format                      : UTF-8
Codec ID                    : S_TEXT/UTF8
Codec ID/Info               : UTF-8 Plain Text
Title                       : Track 1 [DDR]
Language                    : English
Default                     : Yes
Forced                      : No

Menu
00:00:00.000                : :00:00:00.000
00:08:11.833                : :00:08:11.833
00:15:03.458                : :00:15:03.458
00:18:22.000                : :00:18:22.000
00:27:27.000                : :00:27:27.000
00:31:33.417                : :00:31:33.417
00:36:30.000                : :00:36:30.000
00:47:38.000                : :00:47:38.000
00:53:08.000                : :00:53:08.000
01:00:01.000                : :01:00:01.000
01:04:20.417                : :01:04:20.417
01:13:00.667                : :01:13:00.667
01:16:12.167                : :01:16:12.167
01:21:35.792                : :01:21:35.792
01:28:15.542                : :01:28:15.542
01:47:03.125                : :01:47:03.125
01:48:19.417                : :01:48:19.417
02:05:32.625                : :02:05:32.625
02:09:39.125                : :02:09:39.125
02:27:57.583                : :02:27:57.583



Brothers (2015) 720p - BluRay - x264 - DD5.1-NhaNc3
SINGLE DIRECT FAST LINKS

http://www.heroupload.us/7a66dee1ffc012c9/Brothers.2015.720p.BluRay.nHD.x264-NhaNc3.mkv



http://filefloater.com/29NK/Brothers.2015.720p.BluRay.nHD.x264-NhaNc3.mkv


Buy Premium From My Links & Support Me

Add a comment

Name:* E-Mail:*
Bold Italic Underline Strike | Align left Center Align right | Insert smilies Insert link URLInsert protected URL Select color | Add Hidden Text Insert Quote Convert selected text from selection to Cyrillic (Russian) alphabet Insert spoiler
Enter the code below: *