Rss
Calendar
«    November 2017    »
MonTueWedThuFriSatSun
 12345
6789101112
13141516171819
20212223242526
27282930 
» » Tubelight (2017) 1/3HDRip - x264 - AC3 5.1 - ESub - Team DUS
  • Author: wroser
  • |
  • Comments: 0
  • |
  • Views: 17
Tubelight (2017) 1/3HDRip - x264 - AC3 5.1 - ESub - Team DUS










Format : Matroska
Format version : Version 2
File size : 1.44 GiB
Duration : 2 h 9 min
Overall bit rate : 1 590 kb/s
Encoded date : UTC 2017-10-02 19:52:40
Writing application : mkvmerge v7.0.0 ('Where We Going') 32bit built on Jun 9 2014 15:08:34
Writing library : libebml v1.3.0 + libmatroska v1.4.1

Video
ID : 1
Format : AVC
Format/Info : Advanced Video Codec
Format profile : High@L3
Format settings : CABAC / 4 Ref Frames
Format settings, CABAC : Yes
Format settings, RefFrames : 4 frames
Codec ID : V_MPEG4/ISO/AVC
Duration : 2 h 9 min
Bit rate : 1 208 kb/s
Width : 720 pixels
Height : 304 pixels
Display aspect ratio : 2.35:1
Frame rate mode : Constant
Frame rate : 25.000 FPS
Color space : YUV
Chroma subsampling : 4:2:0
Bit depth : 8 bits
Scan type : Progressive
Bits/(Pixel*Frame) : 0.221
Stream size : 1.09 GiB (76%)
Writing library : x264 core 142 r2431 ac76440
Encoding settings : cabac=1 / ref=3 / deblock=1:0:0 / analyse=0x3:0x113 / me=hex / subme=7 / psy=1 / psy_rd=1.00:0.00 / mixed_ref=1 / me_range=16 / chroma_me=1 / trellis=1 / 8x8dct=1 / cqm=0 / deadzone=21,11 / fast_pskip=1 / chroma_qp_offset=-2 / threads=1 / lookahead_threads=1 / sliced_threads=0 / nr=0 / decimate=1 / interlaced=0 / bluray_compat=0 / constrained_intra=0 / bframes=3 / b_pyramid=2 / b_adapt=1 / b_bias=0 / direct=1 / weightb=1 / open_gop=0 / weightp=2 / keyint=250 / keyint_min=24 / scenecut=40 / intra_refresh=0 / rc_lookahead=40 / rc=abr / mbtree=1 / bitrate=1208 / ratetol=1.0 / qcomp=0.60 / qpmin=0 / qpmax=69 / qpstep=4 / ip_ratio=1.40 / aq=1:1.00
Default : Yes
Forced : No

Audio
ID : 2
Format : AC-3
Format/Info : Audio Coding 3
Format settings, Endianness : Big
Codec ID : A_AC3
Duration : 2 h 9 min
Bit rate mode : Constant
Bit rate : 384 kb/s
Channel(s) : 6 channels
Channel positions : Front: L C R, Side: L R, LFE
Sampling rate : 48.0 kHz
Frame rate : 31.250 FPS (1536 SPF)
Bit depth : 16 bits
Compression mode : Lossy
Delay relative to video : 300 ms
Stream size : 357 MiB (24%)
Language : Hindi
Service kind : Complete Main
Default : Yes
Forced : No

Text
ID : 3
Format : UTF-8
Codec ID : S_TEXT/UTF8
Codec ID/Info : UTF-8 Plain Text
Duration : 2 h 3 min
Bit rate : 33 b/s
Count of elements : 1080
Stream size : 30.1 KiB (0%)
Language : English
Default : Yes
Forced : No




[B]** ScreenSHots **[/B]

Tubelight (2017) 1/3HDRip - x264 - AC3 5.1 - ESub - Team DUS
Tubelight (2017) 1/3HDRip - x264 - AC3 5.1 - ESub - Team DUS
Tubelight (2017) 1/3HDRip - x264 - AC3 5.1 - ESub - Team DUS
Tubelight (2017) 1/3HDRip - x264 - AC3 5.1 - ESub - Team DUS
Tubelight (2017) 1/3HDRip - x264 - AC3 5.1 - ESub - Team DUS
Tubelight (2017) 1/3HDRip - x264 - AC3 5.1 - ESub - Team DUS
Tubelight (2017) 1/3HDRip - x264 - AC3 5.1 - ESub - Team DUS
Tubelight (2017) 1/3HDRip - x264 - AC3 5.1 - ESub - Team DUS
Tubelight (2017) 1/3HDRip - x264 - AC3 5.1 - ESub - Team DUS
Tubelight (2017) 1/3HDRip - x264 - AC3 5.1 - ESub - Team DUS
Tubelight (2017) 1/3HDRip - x264 - AC3 5.1 - ESub - Team DUS
Tubelight (2017) 1/3HDRip - x264 - AC3 5.1 - ESub - Team DUS
Tubelight (2017) 1/3HDRip - x264 - AC3 5.1 - ESub - Team DUS

[B] Diwali[/B] Sale buy Premium with 50% Discount. Now Enjoy Premium Fast Speed and Support US.


[B] SINGLE DIRECT FAST LINKS[/B]

http://www.heroupload.com/bca65bed270ae20c/Tubelight.2017.1-3.WebHDRip.x264.AC3.5.1.ESub-DUS.mkv



http://filefloater.com/8P6/Tubelight.2017.1-3.WebHDRip.x264.AC3.5.1.ESub-DUS.mkv

Add a comment

Name:* E-Mail:*
Bold Italic Underline Strike | Align left Center Align right | Insert smilies Insert link URLInsert protected URL Select color | Add Hidden Text Insert Quote Convert selected text from selection to Cyrillic (Russian) alphabet Insert spoiler
Enter the code below: *