Rss
Calendar
«    November 2017    »
MonTueWedThuFriSatSun
 12345
6789101112
13141516171819
20212223242526
27282930 
» » Thappu Thand (2017) Tamil - 720p - WEB-HD - AVC - AAC5.1 - Esubs-MTR
  • Author: wroser
  • |
  • Comments: 0
  • |
  • Views: 26
Thappu Thand (2017) Tamil - 720p - WEB-HD - AVC - AAC5.1 - Esubs-MTR







General
Format                      : MPEG-4
Format profile              : Base Media
Codec ID                    : isom (isom)
File size                   : 1.73 GiB
Duration                    : 1 h 46 min
Overall bit rate mode       : Variable
Overall bit rate            : 2 314 kb/s
Encoded date                : UTC 2017-10-05 19:32:58
Tagged date                 : UTC 2017-10-05 19:32:58
Writing application         : MkvToMp4 [www.mkvtomp4.ru] version 0.224 (x64)

Video
ID                          : 1
Format                      : AVC
Format/Info                 : Advanced Video Codec
Format profile              : Main@L3.1
Format settings, CABAC      : Yes
Format settings, RefFrames  : 4 frames
Format settings, GOP        : M=3, N=24
Codec ID                    : avc1
Codec ID/Info               : Advanced Video Coding
Duration                    : 1 h 46 min
Bit rate                    : 1 996 kb/s
Maximum bit rate            : 5 582 kb/s
Width                       : 1 280 pixels
Height                      : 720 pixels
Display aspect ratio        : 16:9
Frame rate mode             : Constant
Frame rate                  : 24.000 FPS
Color space                 : YUV
Chroma subsampling          : 4:2:0
Bit depth                   : 8 bits
Scan type                   : Progressive
Bits/(Pixel*Frame)          : 0.090
Stream size                 : 1.49 GiB (86%)
Writing library             : Zencoder Video Encoding System
Language                    : English
Tagged date                 : UTC 2017-10-05 19:33:04
Color range                 : Limited
Color primaries             : BT.709
Transfer characteristics    : BT.709
Matrix coefficients         : BT.709

Audio
ID                          : 2
Format                      : AAC
Format/Info                 : Advanced Audio Codec
Format profile              : LC
Codec ID                    : 40
Duration                    : 1 h 46 min
Bit rate mode               : Variable
Bit rate                    : 315 kb/s
Maximum bit rate            : 367 kb/s
Channel(s)                  : 2 channels
Channel(s)_Original         : 6 channels
Channel positions           : Front: L C R, Side: L R, LFE
Sampling rate               : 48.0 kHz
Frame rate                  : 46.875 FPS (1024 SPF)
Compression mode            : Lossy
Stream size                 : 241 MiB (14%)
Language                    : English
Default                     : Yes
Alternate group             : 1
Encoded date                : UTC 2017-10-05 19:33:01
Tagged date                 : UTC 2017-10-05 19:33:04


Thappu Thand (2017) Tamil - 720p - WEB-HD - AVC - AAC5.1 - Esubs-MTRThappu Thand (2017) Tamil - 720p - WEB-HD - AVC - AAC5.1 - Esubs-MTRThappu Thand (2017) Tamil - 720p - WEB-HD - AVC - AAC5.1 - Esubs-MTRThappu Thand (2017) Tamil - 720p - WEB-HD - AVC - AAC5.1 - Esubs-MTRThappu Thand (2017) Tamil - 720p - WEB-HD - AVC - AAC5.1 - Esubs-MTRThappu Thand (2017) Tamil - 720p - WEB-HD - AVC - AAC5.1 - Esubs-MTRThappu Thand (2017) Tamil - 720p - WEB-HD - AVC - AAC5.1 - Esubs-MTRThappu Thand (2017) Tamil - 720p - WEB-HD - AVC - AAC5.1 - Esubs-MTRThappu Thand (2017) Tamil - 720p - WEB-HD - AVC - AAC5.1 - Esubs-MTRThappu Thand (2017) Tamil - 720p - WEB-HD - AVC - AAC5.1 - Esubs-MTR


[B]SINGLE DIRECT FAST LINKS[/B]

http://www.heroupload.com/ad0863379aade6f0/Thappu.Thanda.2017.720p.v2.HD.AVC.5.1.MP4.ESubs.Tamil-MTR.mp4
http://www.heroupload.com/b8d76c5fbcd14262/Thappu.Thanda.2017.720p.v2.HD.AVC.5.1.MP4.ESubs.Tamil-MTR.srt



http://filefloater.com/3s4/Thappu.Thanda.2017.720p.v2.HD.AVC.5.1.MP4.ESubs.Tamil-MTR.mp4
http://filefloater.com/3s5/Thappu.Thanda.2017.720p.v2.HD.AVC.5.1.MP4.ESubs.Tamil-MTR.srt



Add a comment

Name:* E-Mail:*
Bold Italic Underline Strike | Align left Center Align right | Insert smilies Insert link URLInsert protected URL Select color | Add Hidden Text Insert Quote Convert selected text from selection to Cyrillic (Russian) alphabet Insert spoiler
Enter the code below: *