Rss
Calendar
«    August 2018    »
MonTueWedThuFriSatSun
 12345
6789101112
13141516171819
20212223242526
2728293031 
» » Kaala (2018) Tamil Ultra HD 4K - Untouched - AVC - Dolby ® 5.1 - Esubs-MTR
  • Author: wroser
  • |
  • Comments: 0
  • |
  • Views: 84
Kaala (2018) Tamil Ultra HD 4K - Untouched - AVC - Dolby ® 5.1 - Esubs-MTR





Format                      : MPEG-4
Codec ID                    : M4V  (isom/avc1/mp42)
File size                   : 6.06 GiB
Duration                    : 2 h 35 min
Overall bit rate mode       : Variable
Overall bit rate            : 5 584 kb/s
Encoded date                : UTC 2018-07-26 19:21:33
Tagged date                 : UTC 2018-07-26 19:21:33

Video
ID                          : 1
Format                      : AVC
Format/Info                 : Advanced Video Codec
Format profile              : Main@L5.1
Format settings, CABAC      : Yes
Format settings, RefFrames  : 3 frames
Codec ID                    : avc1
Codec ID/Info               : Advanced Video Coding
Duration                    : 2 h 35 min
Bit rate mode               : Constant
Bit rate                    : 5 000 kb/s
Maximum bit rate            : 14.5 Mb/s
Width                       : 3 840 pixels
Height                      : 2 160 pixels
Display aspect ratio        : 16:9
Frame rate mode             : Constant
Frame rate                  : 24.000 FPS
Standard                    : NTSC
Color space                 : YUV
Chroma subsampling          : 4:2:0
Bit depth                   : 8 bits
Scan type                   : Progressive
Bits/(Pixel*Frame)          : 0.025
Stream size                 : 5.42 GiB (90%)
Encoded date                : UTC 2018-07-26 19:21:33
Tagged date                 : UTC 2018-07-26 19:21:33
Color range                 : Limited
Color primaries             : BT.709
Transfer characteristics    : BT.709
Matrix coefficients         : BT.709

Audio #1
ID                          : 2
Format                      : AAC
Format/Info                 : Advanced Audio Codec
Format profile              : LC
Codec ID                    : 40
Duration                    : 2 h 35 min
Bit rate mode               : Variable
Bit rate                    : 128 kb/s
Maximum bit rate            : 133 kb/s
Channel(s)                  : 2 channels
Channel positions           : Front: L R
Sampling rate               : 48.0 kHz
Frame rate                  : 46.875 FPS (1024 SPF)
Compression mode            : Lossy
Stream size                 : 139 MiB (2%)
Language                    : English
Encoded date                : UTC 2018-07-26 19:21:33
Tagged date                 : UTC 2018-07-26 19:21:33

Audio #2
ID                          : 3
Format                      : AC-3
Format/Info                 : Audio Coding 3
Format settings, Endianness : Big
Codec ID                    : ac-3
Duration                    : 2 h 35 min
Bit rate mode               : Constant
Bit rate                    : 320 kb/s
Channel(s)                  : 2 channels
Channel positions           : Front: L R
Sampling rate               : 48.0 kHz
Frame rate                  : 31.250 FPS (1536 SPF)
Bit depth                   : 16 bits
Compression mode            : Lossy
Stream size                 : 497 MiB (8%)
Language                    : English
Service kind                : Complete Main
Encoded date                : UTC 2018-07-26 19:21:33
Tagged date                 : UTC 2018-07-26 19:21:33




Kaala (2018) Tamil Ultra HD 4K - Untouched - AVC - Dolby ® 5.1 - Esubs-MTRKaala (2018) Tamil Ultra HD 4K - Untouched - AVC - Dolby ® 5.1 - Esubs-MTRKaala (2018) Tamil Ultra HD 4K - Untouched - AVC - Dolby ® 5.1 - Esubs-MTRKaala (2018) Tamil Ultra HD 4K - Untouched - AVC - Dolby ® 5.1 - Esubs-MTRKaala (2018) Tamil Ultra HD 4K - Untouched - AVC - Dolby ® 5.1 - Esubs-MTRKaala (2018) Tamil Ultra HD 4K - Untouched - AVC - Dolby ® 5.1 - Esubs-MTRKaala (2018) Tamil Ultra HD 4K - Untouched - AVC - Dolby ® 5.1 - Esubs-MTR

SINGLE DIRECT FAST LINKS

http://www.heroupload.us/7d55e458fb0fc11e/Kaala.2018.Proper.4K.v2.Untouched.UHD.DD5.1.MP4.ESubs.Tamil-MTR.mp4


1GB LINKS

http://www.heroupload.us/99c400aebd987ac2/Kaala.2018.Proper.4K.v2.Untouched.UHD.DD5.1.MP4.ESubs.Tamil-MTR.part1.rar
http://www.heroupload.us/8363be0488f2ebeb/Kaala.2018.Proper.4K.v2.Untouched.UHD.DD5.1.MP4.ESubs.Tamil-MTR.part2.rar
http://www.heroupload.us/4b724facac3c4212/Kaala.2018.Proper.4K.v2.Untouched.UHD.DD5.1.MP4.ESubs.Tamil-MTR.part3.rar
http://www.heroupload.us/993f6a9bf18cbcdd/Kaala.2018.Proper.4K.v2.Untouched.UHD.DD5.1.MP4.ESubs.Tamil-MTR.part4.rar
http://www.heroupload.us/a4942af2e2c04a16/Kaala.2018.Proper.4K.v2.Untouched.UHD.DD5.1.MP4.ESubs.Tamil-MTR.part5.rar
http://www.heroupload.us/c1a434deffaa539b/Kaala.2018.Proper.4K.v2.Untouched.UHD.DD5.1.MP4.ESubs.Tamil-MTR.part6.rar
http://www.heroupload.us/b9de037cf9cb00c0/Kaala.2018.Proper.4K.v2.Untouched.UHD.DD5.1.MP4.ESubs.Tamil-MTR.part7.rar
http://www.heroupload.us/09aa5e85a4ad9735/Kaala.2018.Proper.4K.v2.Untouched.UHD.DD5.1.MP4.ESubs.Tamil-MTR.srt



http://filefloater.com/2zYI/Kaala.2018.Proper.4K.v2.Untouched.UHD.DD5.1.MP4.ESubs.Tamil-MTR.part1.rar
http://filefloater.com/2zYJ/Kaala.2018.Proper.4K.v2.Untouched.UHD.DD5.1.MP4.ESubs.Tamil-MTR.part2.rar
http://filefloater.com/2zYK/Kaala.2018.Proper.4K.v2.Untouched.UHD.DD5.1.MP4.ESubs.Tamil-MTR.part3.rar
http://filefloater.com/2zYL/Kaala.2018.Proper.4K.v2.Untouched.UHD.DD5.1.MP4.ESubs.Tamil-MTR.part4.rar
http://filefloater.com/2zYM/Kaala.2018.Proper.4K.v2.Untouched.UHD.DD5.1.MP4.ESubs.Tamil-MTR.part5.rar
http://filefloater.com/2zYN/Kaala.2018.Proper.4K.v2.Untouched.UHD.DD5.1.MP4.ESubs.Tamil-MTR.part6.rar
http://filefloater.com/1JX0/Kaala.2018.Proper.4K.v2.Untouched.UHD.DD5.1.MP4.ESubs.Tamil-MTR.part7.rar
http://filefloater.com/1JX1/Kaala.2018.Proper.4K.v2.Untouched.UHD.DD5.1.MP4.ESubs.Tamil-MTR.srt


Buy Premium From My Links & Support Me

Add a comment

Name:* E-Mail:*
Bold Italic Underline Strike | Align left Center Align right | Insert smilies Insert link URLInsert protected URL Select color | Add Hidden Text Insert Quote Convert selected text from selection to Cyrillic (Russian) alphabet Insert spoiler
Enter the code below: *