Rss
Calendar
«    May 2018    »
MonTueWedThuFriSatSun
 123456
78910111213
14151617181920
21222324252627
28293031 
» » Pakka (2018) Tamil - 700MB - 1CDRip - HDRip - XviD - MP3 - ESubs-MTR
  • Author: wroser
  • |
  • Comments: 0
  • |
  • Views: 16
Pakka (2018) Tamil - 700MB - 1CDRip - HDRip - XviD - MP3 - ESubs-MTR





General
Format                      : AVI
Format/Info                 : Audio Video Interleave
File size                   : 714 MiB
Duration                    : 2 h 19 min
Overall bit rate            : 714 kb/s

Video
ID                          : 0
Format                      : MPEG-4 Visual
Format profile              : Advanced Simple@L5
Format settings, BVOP       : 2
Format settings, QPel       : No
Format settings, GMC        : No warppoints
Format settings, Matrix     : Default (H.263)
Codec ID                    : XVID
Codec ID/Hint               : XviD
Duration                    : 2 h 19 min
Bit rate                    : 611 kb/s
Width                       : 608 pixels
Height                      : 256 pixels
Display aspect ratio        : 2.40:1
Frame rate                  : 29.970 (30000/1001) FPS
Color space                 : YUV
Chroma subsampling          : 4:2:0
Bit depth                   : 8 bits
Scan type                   : Progressive
Compression mode            : Lossy
Bits/(Pixel*Frame)          : 0.131
Stream size                 : 611 MiB (86%)
Writing library             : XviD 67

Audio
ID                          : 1
Format                      : MPEG Audio
Format version              : Version 1
Format profile              : Layer 3
Mode                        : Joint stereo
Mode extension              : MS Stereo
Codec ID                    : 55
Codec ID/Hint               : MP3
Duration                    : 2 h 19 min
Bit rate mode               : Constant
Bit rate                    : 96.0 kb/s
Channel(s)                  : 2 channels
Sampling rate               : 48.0 kHz
Compression mode            : Lossy
Stream size                 : 96.0 MiB (13%)
Alignment                   : Aligned on interleaves
Interleave, duration        : 133  ms (4.00 video frames)
Interleave, preload duratio : 216  ms
Title                       : Pakka
Writing library             : LAME3.99.5



Pakka (2018) Tamil - 700MB - 1CDRip - HDRip - XviD - MP3 - ESubs-MTRPakka (2018) Tamil - 700MB - 1CDRip - HDRip - XviD - MP3 - ESubs-MTRPakka (2018) Tamil - 700MB - 1CDRip - HDRip - XviD - MP3 - ESubs-MTRPakka (2018) Tamil - 700MB - 1CDRip - HDRip - XviD - MP3 - ESubs-MTR


SINGLE DIRECT FAST LINKS


http://www.heroupload.us/43516589ce8954e4/Pakka.2018.HDRip.XviD.MP3.700MB.ESubs.Tamil-MTR.avi
http://www.heroupload.us/b076e86c4c9a3cee/Pakka.2018.HDRip.XviD.MP3.700MB.ESubs.Tamil-MTR.srt



http://filefloater.com/T2t/Pakka.2018.HDRip.XviD.MP3.700MB.ESubs.Tamil-MTR.avi
http://filefloater.com/T2u/Pakka.2018.HDRip.XviD.MP3.700MB.ESubs.Tamil-MTR.srt



Add a comment

Name:* E-Mail:*
Bold Italic Underline Strike | Align left Center Align right | Insert smilies Insert link URLInsert protected URL Select color | Add Hidden Text Insert Quote Convert selected text from selection to Cyrillic (Russian) alphabet Insert spoiler
Enter the code below: *