Rss
Calendar
«    September 2018    »
MonTueWedThuFriSatSun
 12
3456789
10111213141516
17181920212223
24252627282930
» » Chennai 2 Singapore (2017) Tamil - 720p - HDTV-Rip - x264 - AAC-MTR
  • Author: wroser
  • |
  • Comments: 0
  • |
  • Views: 61
Chennai 2 Singapore (2017) Tamil - 720p - HDTV-Rip - x264 - AAC-MTR





General
Format                      : Matroska
Format version              : Version 4 / Version 2
File size                   : 1.42 GiB
Duration                    : 2 h 1 min
Overall bit rate            : 1 671 kb/s
Encoded date                : UTC 2018-08-12 14:34:41
Writing application         : mkvmerge v24.0.0 ('Beyond The Pale') 64-bit
Writing library             : libebml v1.3.6 + libmatroska v1.4.9

Video
ID                          : 1
Format                      : AVC
Format/Info                 : Advanced Video Codec
Format profile              : High@L3.1
Format settings, CABAC      : Yes
Format settings, RefFrames  : 4 frames
Codec ID                    : V_MPEG4/ISO/AVC
Duration                    : 2 h 1 min
Bit rate                    : 1 585 kb/s
Width                       : 1 280 pixels
Height                      : 584 pixels
Display aspect ratio        : 2.2:1
Frame rate mode             : Constant
Frame rate                  : 25.000 FPS
Color space                 : YUV
Chroma subsampling          : 4:2:0
Bit depth                   : 8 bits
Scan type                   : Progressive
Bits/(Pixel*Frame)          : 0.085
Stream size                 : 1.34 GiB (94%)
Writing library             : x264 core 148 r2744 b97ae06
Encoding settings           : cabac=1 / ref=3 / deblock=1:0:0 / analyse=0x3:0x113 / me=hex / subme=7 / psy=1 / psy_rd=1.00:0.00 / mixed_ref=1 / me_range=16 / chroma_me=1 / trellis=1 / 8x8dct=1 / cqm=0 / deadzone=21,11 / fast_pskip=1 / chroma_qp_offset=-2 / threads=18 / lookahead_threads=3 / sliced_threads=0 / nr=0 / decimate=1 / interlaced=0 / bluray_compat=0 / constrained_intra=0 / bframes=3 / b_pyramid=2 / b_adapt=1 / b_bias=0 / direct=1 / weightb=1 / open_gop=0 / weightp=2 / keyint=250 / keyint_min=25 / scenecut=40 / intra_refresh=0 / rc_lookahead=40 / rc=abr / mbtree=1 / bitrate=1585 / ratetol=1.0 / qcomp=0.60 / qpmin=0 / qpmax=69 / qpstep=4 / ip_ratio=1.40 / aq=1:1.00
Language                    : Tamil
Default                     : Yes
Forced                      : No

Audio
ID                          : 2
Format                      : AAC
Format/Info                 : Advanced Audio Codec
Format profile              : LC
Codec ID                    : A_AAC
Duration                    : 2 h 1 min
Bit rate                    : 93.4 kb/s
Channel(s)                  : 2 channels
Channel positions           : Front: L R
Sampling rate               : 48.0 kHz
Frame rate                  : 46.875 FPS (1024 SPF)
Compression mode            : Lossy
Stream size                 : 81.1 MiB (6%)
Language                    : Tamil
Default                     : Yes
Forced                      : No


Chennai 2 Singapore (2017) Tamil - 720p - HDTV-Rip - x264 - AAC-MTRChennai 2 Singapore (2017) Tamil - 720p - HDTV-Rip - x264 - AAC-MTRChennai 2 Singapore (2017) Tamil - 720p - HDTV-Rip - x264 - AAC-MTRChennai 2 Singapore (2017) Tamil - 720p - HDTV-Rip - x264 - AAC-MTRChennai 2 Singapore (2017) Tamil - 720p - HDTV-Rip - x264 - AAC-MTRChennai 2 Singapore (2017) Tamil - 720p - HDTV-Rip - x264 - AAC-MTR

SINGLE DIRECT FAST LINKS
http://www.heroupload.us/6980138812cbc277/Chennai.2.Singapore.2017.Tamil.720p.HDTVRip.x264-MTR.mkv


http://filefloater.com/1Keu/Chennai.2.Singapore.2017.Tamil.720p.HDTVRip.x264-MTR.mkv




Buy Premium From My Links & Support Me

Add a comment

Name:* E-Mail:*
Bold Italic Underline Strike | Align left Center Align right | Insert smilies Insert link URLInsert protected URL Select color | Add Hidden Text Insert Quote Convert selected text from selection to Cyrillic (Russian) alphabet Insert spoiler
Enter the code below: *