Rss
Calendar
«    October 2018    »
MonTueWedThuFriSatSun
1234567
891011121314
15161718192021
22232425262728
293031 
» » Vishwaroopam 2 (2018) Tamil - 1080p - WEB-HD - AVC - DD5.1 - ESubs TeamMTR
  • Author: wroser
  • |
  • Comments: 0
  • |
  • Views: 83
Vishwaroopam 2 (2018) Tamil - 1080p - WEB-HD - AVC - DD5.1 - ESubs TeamMTR





Format                      : MPEG-4
Format profile              : Base Media
Codec ID                    : isom (isom)
File size                   : 9.07 GiB
Duration                    : 2 h 24 min
Overall bit rate mode       : Constant
Overall bit rate            : 9 014 kb/s
Encoded date                : UTC 2018-09-12 14:03:28
Tagged date                 : UTC 2018-09-12 14:03:28
Writing application         : MkvToMp4 [www.mkvtomp4.ru] version 0.224 (x64)

Video
ID                          : 1
Format                      : AVC
Format/Info                 : Advanced Video Codec
Format profile              : High@L4
Format settings, CABAC      : Yes
Format settings, RefFrames  : 3 frames
Codec ID                    : avc1
Codec ID/Info               : Advanced Video Coding
Duration                    : 2 h 24 min
Source duration             : 2 h 24 min
Bit rate mode               : Constant
Bit rate                    : 8 500 kb/s
Maximum bit rate            : 17.1 Mb/s
Width                       : 1 920 pixels
Height                      : 1 080 pixels
Display aspect ratio        : 16:9
Frame rate mode             : Constant
Frame rate                  : 29.970 (30000/1001) FPS
Color space                 : YUV
Chroma subsampling          : 4:2:0
Bit depth                   : 8 bits
Scan type                   : Progressive
Bits/(Pixel*Frame)          : 0.137
Stream size                 : 8.19 GiB (90%)
Source stream size          : 8.55 GiB (94%)
Language                    : English
Tagged date                 : UTC 2018-09-12 14:03:52
Color range                 : Limited
Color primaries             : BT.709
Transfer characteristics    : BT.709
Matrix coefficients         : BT.709

Audio
ID                          : 2
Format                      : AC-3
Format/Info                 : Audio Coding 3
Format settings, Endianness : Big
Codec ID                    : ac-3
Duration                    : 2 h 24 min
Bit rate mode               : Constant
Bit rate                    : 512 kb/s
Channel(s)                  : 6 channels
Channel positions           : Front: L C R, Side: L R, LFE
Sampling rate               : 48.0 kHz
Frame rate                  : 31.250 FPS (1536 SPF)
Bit depth                   : 16 bits
Compression mode            : Lossy
Stream size                 : 528 MiB (6%)
Language                    : English
Service kind                : Complete Main
Default                     : Yes
Alternate group             : 1
Encoded date                : UTC 2018-09-12 14:03:48
Tagged date                 : UTC 2018-09-12 14:03:52


Vishwaroopam 2 (2018) Tamil - 1080p - WEB-HD - AVC - DD5.1 - ESubs TeamMTRVishwaroopam 2 (2018) Tamil - 1080p - WEB-HD - AVC - DD5.1 - ESubs TeamMTRVishwaroopam 2 (2018) Tamil - 1080p - WEB-HD - AVC - DD5.1 - ESubs TeamMTRVishwaroopam 2 (2018) Tamil - 1080p - WEB-HD - AVC - DD5.1 - ESubs TeamMTRVishwaroopam 2 (2018) Tamil - 1080p - WEB-HD - AVC - DD5.1 - ESubs TeamMTR


SINGLE DIRECT FAST LINKS

http://www.heroupload.us/6e3fa8fc5ef8303c/Vishwaroopam.2.2018.Tamil.1080p.v3.HD.DD5.1.AVC.MP4.ESubs.Tamil-MTR.mp4


1GB LINKS

http://www.heroupload.us/dbf31e4a6ed99aae/Vishwaroopam.2.2018.Tamil.1080p.v3.HD.DD5.1.AVC.MP4.ESubs.Tamil-MTR.part01.rar
http://www.heroupload.us/765d60a56ba3eb35/Vishwaroopam.2.2018.Tamil.1080p.v3.HD.DD5.1.AVC.MP4.ESubs.Tamil-MTR.part02.rar
http://www.heroupload.us/5b9ef0067c812f28/Vishwaroopam.2.2018.Tamil.1080p.v3.HD.DD5.1.AVC.MP4.ESubs.Tamil-MTR.part03.rar
http://www.heroupload.us/6bd52d750eb5a02a/Vishwaroopam.2.2018.Tamil.1080p.v3.HD.DD5.1.AVC.MP4.ESubs.Tamil-MTR.part04.rar
http://www.heroupload.us/1ff8d8d6ec1852cc/Vishwaroopam.2.2018.Tamil.1080p.v3.HD.DD5.1.AVC.MP4.ESubs.Tamil-MTR.part05.rar
http://www.heroupload.us/4a7e6bddb138abd0/Vishwaroopam.2.2018.Tamil.1080p.v3.HD.DD5.1.AVC.MP4.ESubs.Tamil-MTR.part06.rar
http://www.heroupload.us/2b4b780ea7b04f0e/Vishwaroopam.2.2018.Tamil.1080p.v3.HD.DD5.1.AVC.MP4.ESubs.Tamil-MTR.part07.rar
http://www.heroupload.us/63c5f4fe18e7fe1e/Vishwaroopam.2.2018.Tamil.1080p.v3.HD.DD5.1.AVC.MP4.ESubs.Tamil-MTR.part08.rar
http://www.heroupload.us/56943beb00b00c0f/Vishwaroopam.2.2018.Tamil.1080p.v3.HD.DD5.1.AVC.MP4.ESubs.Tamil-MTR.part09.rar
http://www.heroupload.us/743708b0094152d8/Vishwaroopam.2.2018.Tamil.1080p.v3.HD.DD5.1.AVC.MP4.ESubs.Tamil-MTR.part10.rar
http://www.heroupload.us/89509bbe4c8ea939/Vishwaroopam.2.2018.Tamil.1080p.v3.HD.DD5.1.AVC.MP4.ESubs.Tamil-MTR.srt



http://filefloater.com/30Ou/Vishwaroopam.2.2018.Tamil.1080p.v3.HD.DD5.1.AVC.MP4.ESubs.Tamil-MTR.part01.rar
http://filefloater.com/30Ov/Vishwaroopam.2.2018.Tamil.1080p.v3.HD.DD5.1.AVC.MP4.ESubs.Tamil-MTR.part02.rar
http://filefloater.com/30Ow/Vishwaroopam.2.2018.Tamil.1080p.v3.HD.DD5.1.AVC.MP4.ESubs.Tamil-MTR.part03.rar
http://filefloater.com/30Ox/Vishwaroopam.2.2018.Tamil.1080p.v3.HD.DD5.1.AVC.MP4.ESubs.Tamil-MTR.part04.rar
http://filefloater.com/30Oy/Vishwaroopam.2.2018.Tamil.1080p.v3.HD.DD5.1.AVC.MP4.ESubs.Tamil-MTR.part05.rar
http://filefloater.com/30Oz/Vishwaroopam.2.2018.Tamil.1080p.v3.HD.DD5.1.AVC.MP4.ESubs.Tamil-MTR.part06.rar
http://filefloater.com/30OA/Vishwaroopam.2.2018.Tamil.1080p.v3.HD.DD5.1.AVC.MP4.ESubs.Tamil-MTR.part07.rar
http://filefloater.com/30OB/Vishwaroopam.2.2018.Tamil.1080p.v3.HD.DD5.1.AVC.MP4.ESubs.Tamil-MTR.part08.rar
http://filefloater.com/30OC/Vishwaroopam.2.2018.Tamil.1080p.v3.HD.DD5.1.AVC.MP4.ESubs.Tamil-MTR.part09.rar
http://filefloater.com/30OD/Vishwaroopam.2.2018.Tamil.1080p.v3.HD.DD5.1.AVC.MP4.ESubs.Tamil-MTR.part10.rar



Buy Premium From My Links & Support Me

Add a comment

Name:* E-Mail:*
Bold Italic Underline Strike | Align left Center Align right | Insert smilies Insert link URLInsert protected URL Select color | Add Hidden Text Insert Quote Convert selected text from selection to Cyrillic (Russian) alphabet Insert spoiler
Enter the code below: *