Rss
Calendar
«    June 2018    »
MonTueWedThuFriSatSun
 123
45678910
11121314151617
18192021222324
252627282930 
» » Krishnarjuna Yudham (2018) Telugu - 1080p - HQ-WEB-DL - AVC - AAC - Esubs-TMV
  • Author: wroser
  • |
  • Comments: 1
  • |
  • Views: 109
Krishnarjuna Yudham (2018) Telugu - 1080p - HQ-WEB-DL - AVC - AAC - Esubs-TMV





General
Format                      : Matroska
Format version              : Version 4 / Version 2
File size                   : 10.9 GiB
Duration                    : 2 h 33 min
Overall bit rate            : 10.1 Mb/s
Encoded date                : UTC 2018-05-25 00:25:58
Writing application         : mkvmerge v7.1.0 ('Good Love') 32bit built on Jul 27 2014 12:59:18
Writing library             : libebml v1.3.0 + libmatroska v1.4.1

Video
ID                          : 1
Format                      : AVC
Format/Info                 : Advanced Video Codec
Format profile              : Baseline@L3
Format settings, CABAC      : No
Format settings, RefFrames  : 1 frame
Format settings, GOP        : M=1, N=30
Codec ID                    : V_MPEG4/ISO/AVC
Duration                    : 2 h 33 min
Bit rate                    : 9 999 kb/s
Width                       : 1 918 pixels
Height                      : 1 078 pixels
Display aspect ratio        : 16:9
Frame rate mode             : Constant
Frame rate                  : 25.000 FPS
Color space                 : YUV
Chroma subsampling          : 4:2:0
Bit depth                   : 8 bits
Scan type                   : Progressive
Bits/(Pixel*Frame)          : 0.193
Stream size                 : 10.7 GiB (99%)
Language                    : Telugu
Default                     : Yes
Forced                      : No

Audio
ID                          : 2
Format                      : AAC
Format/Info                 : Advanced Audio Codec
Format profile              : LC
Codec ID                    : A_AAC
Duration                    : 2 h 33 min
Bit rate                    : 128 kb/s
Channel(s)                  : 2 channels
Channel positions           : Front: L R
Sampling rate               : 48.0 kHz
Frame rate                  : 46.875 FPS (1024 SPF)
Compression mode            : Lossy
Delay relative to video     : 11 ms
Stream size                 : 140 MiB (1%)
Language                    : Telugu
Default                     : Yes
Forced                      : No

Text
ID                          : 3
Format                      : UTF-8
Codec ID                    : S_TEXT/UTF8
Codec ID/Info               : UTF-8 Plain Text
Duration                    : 2 h 33 min
Bit rate                    : 66 b/s
Count of elements           : 2029
Stream size                 : 75.2 KiB (0%)
Language                    : English
Default                     : Yes
Forced                      : No




Krishnarjuna Yudham (2018) Telugu - 1080p - HQ-WEB-DL - AVC - AAC - Esubs-TMVKrishnarjuna Yudham (2018) Telugu - 1080p - HQ-WEB-DL - AVC - AAC - Esubs-TMVKrishnarjuna Yudham (2018) Telugu - 1080p - HQ-WEB-DL - AVC - AAC - Esubs-TMVKrishnarjuna Yudham (2018) Telugu - 1080p - HQ-WEB-DL - AVC - AAC - Esubs-TMVKrishnarjuna Yudham (2018) Telugu - 1080p - HQ-WEB-DL - AVC - AAC - Esubs-TMV


SINGLE DIRECT FAST LINKS

http://www.heroupload.us/d2e53ca5cb1fec82/Krishnarjuna.Yuddham.2018.Telugu.True.WEB-HD.1080p.ESub-TMV.mkv


1GB LINKS

http://www.heroupload.us/b4266d87e5b3b022/Krishnarjuna.Yuddham.2018.Telugu.True.WEB-HD.1080p.ESub-TMV.part01.rar
http://www.heroupload.us/cf65f7e800787dfb/Krishnarjuna.Yuddham.2018.Telugu.True.WEB-HD.1080p.ESub-TMV.part02.rar
http://www.heroupload.us/40fe3f08ef75b190/Krishnarjuna.Yuddham.2018.Telugu.True.WEB-HD.1080p.ESub-TMV.part03.rar
http://www.heroupload.us/756da55ee08b57bb/Krishnarjuna.Yuddham.2018.Telugu.True.WEB-HD.1080p.ESub-TMV.part04.rar
http://www.heroupload.us/92c0eeccbc4b9686/Krishnarjuna.Yuddham.2018.Telugu.True.WEB-HD.1080p.ESub-TMV.part05.rar
http://www.heroupload.us/709ccc6584b2ebf6/Krishnarjuna.Yuddham.2018.Telugu.True.WEB-HD.1080p.ESub-TMV.part06.rar
http://www.heroupload.us/3f8541362213b847/Krishnarjuna.Yuddham.2018.Telugu.True.WEB-HD.1080p.ESub-TMV.part07.rar
http://www.heroupload.us/c37d08a2fef6b314/Krishnarjuna.Yuddham.2018.Telugu.True.WEB-HD.1080p.ESub-TMV.part08.rar
http://www.heroupload.us/83c9c61afcba3968/Krishnarjuna.Yuddham.2018.Telugu.True.WEB-HD.1080p.ESub-TMV.part09.rar
http://www.heroupload.us/7b898f12804bd235/Krishnarjuna.Yuddham.2018.Telugu.True.WEB-HD.1080p.ESub-TMV.part10.rar
http://www.heroupload.us/1570f30c00becc4b/Krishnarjuna.Yuddham.2018.Telugu.True.WEB-HD.1080p.ESub-TMV.part11.rar



http://filefloater.com/Ted/Krishnarjuna.Yuddham.2018.Telugu.True.WEB-HD.1080p.ESub-TMV.part01.rar
http://filefloater.com/Tee/Krishnarjuna.Yuddham.2018.Telugu.True.WEB-HD.1080p.ESub-TMV.part02.rar
http://filefloater.com/Tef/Krishnarjuna.Yuddham.2018.Telugu.True.WEB-HD.1080p.ESub-TMV.part03.rar
http://filefloater.com/Teg/Krishnarjuna.Yuddham.2018.Telugu.True.WEB-HD.1080p.ESub-TMV.part04.rar
http://filefloater.com/Teh/Krishnarjuna.Yuddham.2018.Telugu.True.WEB-HD.1080p.ESub-TMV.part05.rar
http://filefloater.com/Tei/Krishnarjuna.Yuddham.2018.Telugu.True.WEB-HD.1080p.ESub-TMV.part06.rar
http://filefloater.com/Tej/Krishnarjuna.Yuddham.2018.Telugu.True.WEB-HD.1080p.ESub-TMV.part07.rar
http://filefloater.com/Tek/Krishnarjuna.Yuddham.2018.Telugu.True.WEB-HD.1080p.ESub-TMV.part08.rar
http://filefloater.com/Tel/Krishnarjuna.Yuddham.2018.Telugu.True.WEB-HD.1080p.ESub-TMV.part09.rar
http://filefloater.com/Tem/Krishnarjuna.Yuddham.2018.Telugu.True.WEB-HD.1080p.ESub-TMV.part10.rar
http://filefloater.com/Ten/Krishnarjuna.Yuddham.2018.Telugu.True.WEB-HD.1080p.ESub-TMV.part11.rar

  • 1
Люди кто желает играть в современные игры на самых высоких настройках с динамичными теняими
даже на самых слабых ПК или ноутах. Без лагов и фризов (Но нужен более менее нормальный инет).
Читайте статья по настройке компа здесь.
Видео по установке и настройке смотрите тут.
Играю уже пол года на ведре 2005 г. Буду рад кому помог разорить буржуев игровой индустрии!!!

Add a comment

Name:* E-Mail:*
Bold Italic Underline Strike | Align left Center Align right | Insert smilies Insert link URLInsert protected URL Select color | Add Hidden Text Insert Quote Convert selected text from selection to Cyrillic (Russian) alphabet Insert spoiler
Enter the code below: *