Rss
Calendar
«    June 2018    »
MonTueWedThuFriSatSun
 123
45678910
11121314151617
18192021222324
252627282930 
» » Bharat Ane Nenu (2018) Telugu - 720p - WEB-HD - AVC - AAC - ESub-TMV
  • Author: wroser
  • |
  • Comments: 1
  • |
  • Views: 46
Bharat Ane Nenu (2018) Telugu - 720p - WEB-HD - AVC - AAC - ESub-TMV





General
Format                      : MPEG-4
Format profile              : Base Media
Codec ID                    : isom (isom/avc1/iso2)
File size                   : 2.52 GiB
Duration                    : 2 h 48 min
Overall bit rate mode       : Variable
Overall bit rate            : 2 134 kb/s
ContentType                 : Movie
Encoded date                : UTC 2018-06-08 18:13:57
Tagged date                 : UTC 2018-06-08 18:14:45
Writing application         : MkvToMp4 [www.mkvtomp4.ru] version: 0.224 (x64)
HDVideo                     : Yes

Video
ID                          : 1
Format                      : AVC
Format/Info                 : Advanced Video Codec
Format profile              : Main@L4.1
Format settings, CABAC      : Yes
Format settings, RefFrames  : 2 frames
Format settings, GOP        : M=3, N=25
Codec ID                    : avc1
Codec ID/Info               : Advanced Video Coding
Duration                    : 2 h 48 min
Bit rate                    : 1 998 kb/s
Maximum bit rate            : 28.1 Mb/s
Width                       : 1 280 pixels
Height                      : 720 pixels
Display aspect ratio        : 16:9
Frame rate mode             : Constant
Frame rate                  : 30.000 FPS
Color space                 : YUV
Chroma subsampling          : 4:2:0
Bit depth                   : 8 bits
Scan type                   : Progressive
Bits/(Pixel*Frame)          : 0.072
Stream size                 : 2.36 GiB (94%)
Language                    : Telugu
Encoded date                : UTC 2018-06-08 18:13:57
Tagged date                 : UTC 2018-06-08 18:14:24

Audio
ID                          : 2
Format                      : AAC
Format/Info                 : Advanced Audio Codec
Format profile              : LC
Codec ID                    : 40
Duration                    : 2 h 48 min
Bit rate mode               : Variable
Bit rate                    : 128 kb/s
Maximum bit rate            : 340 kb/s
Channel(s)                  : 2 channels
Channel positions           : Front: L R
Sampling rate               : 44.1 kHz
Frame rate                  : 43.066 FPS (1024 SPF)
Compression mode            : Lossy
Stream size                 : 155 MiB (6%)
Language                    : Telugu
Default                     : Yes
Alternate group             : 1
Encoded date                : UTC 2018-06-08 18:14:18
Tagged date                 : UTC 2018-06-08 18:14:24

Text
ID                          : 3
Format                      : Timed Text
Muxing mode                 : sbtl
Codec ID                    : tx3g
Duration                    : 2 h 48 min
Bit rate mode               : Variable
Bit rate                    : 81 b/s
Stream size                 : 101 KiB (0%)
Language                    : English
Default                     : Yes
Forced                      : No
Alternate group             : 2
Encoded date                : UTC 2018-06-08 18:14:23
Tagged date                 : UTC 2018-06-08 18:14:24



Bharat Ane Nenu (2018) Telugu - 720p - WEB-HD - AVC - AAC - ESub-TMVBharat Ane Nenu (2018) Telugu - 720p - WEB-HD - AVC - AAC - ESub-TMVBharat Ane Nenu (2018) Telugu - 720p - WEB-HD - AVC - AAC - ESub-TMVBharat Ane Nenu (2018) Telugu - 720p - WEB-HD - AVC - AAC - ESub-TMVBharat Ane Nenu (2018) Telugu - 720p - WEB-HD - AVC - AAC - ESub-TMVBharat Ane Nenu (2018) Telugu - 720p - WEB-HD - AVC - AAC - ESub-TMV

SINGLE DIRECT FAST LINKS
http://www.heroupload.us/53c432d0afb1475b/Bharat.Ane.Nenu.2018.Telugu.WEB-HD.720p.AVC.AAC.ESub-TMV.mp4


http://filefloater.com/1jmM/Bharat.Ane.Nenu.2018.Telugu.WEB-HD.720p.AVC.AAC.ESub-TMV.mp4

700MB LINKS


http://www.heroupload.us/ea9f52e94ab054d3/Bharat.Ane.Nenu.2018.Telugu.WEB-HD.720p.AVC.AAC.ESub-TMV.part1.rar
http://www.heroupload.us/974352407535af11/Bharat.Ane.Nenu.2018.Telugu.WEB-HD.720p.AVC.AAC.ESub-TMV.part2.rar
http://www.heroupload.us/b4b23d9c74d4e231/Bharat.Ane.Nenu.2018.Telugu.WEB-HD.720p.AVC.AAC.ESub-TMV.part3.rar
http://www.heroupload.us/6625596bd1ca8550/Bharat.Ane.Nenu.2018.Telugu.WEB-HD.720p.AVC.AAC.ESub-TMV.part4.rar
http://www.heroupload.us/e717e3d60f073d75/Bharat.Ane.Nenu.2018.Telugu.WEB-HD.720p.AVC.AAC.ESub-TMV.srt



http://filefloater.com/1jmN/Bharat.Ane.Nenu.2018.Telugu.WEB-HD.720p.AVC.AAC.ESub-TMV.part1.rar
http://filefloater.com/1jmO/Bharat.Ane.Nenu.2018.Telugu.WEB-HD.720p.AVC.AAC.ESub-TMV.part2.rar
http://filefloater.com/1jmP/Bharat.Ane.Nenu.2018.Telugu.WEB-HD.720p.AVC.AAC.ESub-TMV.part3.rar
http://filefloater.com/1jmQ/Bharat.Ane.Nenu.2018.Telugu.WEB-HD.720p.AVC.AAC.ESub-TMV.part4.rar
http://filefloater.com/1jmR/Bharat.Ane.Nenu.2018.Telugu.WEB-HD.720p.AVC.AAC.ESub-TMV.srt



  • 1
Люди кто желает играть в современные игры на самых высоких настройках с динамичными теняими
даже на самых слабых ПК или ноутах. Без лагов и фризов (Но нужен более менее нормальный интернет).
Читайте статья по настройке компа здесь.
Видео по установке и настройке смотрите тут.
Играю уже пол года на ведре 2005 г. Буду рад кому помог разорить буржуев игровой индустрии!!!

Add a comment

Name:* E-Mail:*
Bold Italic Underline Strike | Align left Center Align right | Insert smilies Insert link URLInsert protected URL Select color | Add Hidden Text Insert Quote Convert selected text from selection to Cyrillic (Russian) alphabet Insert spoiler
Enter the code below: *