Rss
Calendar
«    August 2018    »
MonTueWedThuFriSatSun
 12345
6789101112
13141516171819
20212223242526
2728293031 
» » Yuddham Sharanam (2017) Telugu - 720p - WEB-HD - AVC - AAC-TMV
  • Author: wroser
  • |
  • Comments: 0
  • |
  • Views: 42
Yuddham Sharanam (2017) Telugu - 720p - WEB-HD - AVC - AAC-TMV





General
Format                      : MPEG-4
Format profile              : Base Media / Version 2
Codec ID                    : mp42 (isom/mp42)
File size                   : 1.28 GiB
Duration                    : 2 h 17 min
Overall bit rate mode       : Variable
Overall bit rate            : 1 333 kb/s
Encoded date                : UTC 2017-09-12 11:12:00
Tagged date                 : UTC 2017-09-12 11:12:00
gsst                        : 0
gstd                        : 8234306

Video
ID                          : 1
Format                      : AVC
Format/Info                 : Advanced Video Codec
Format profile              : Main@L3.1
Format settings, CABAC      : Yes
Format settings, RefFrames  : 3 frames
Codec ID                    : avc1
Codec ID/Info               : Advanced Video Coding
Duration                    : 2 h 17 min
Bit rate                    : 1 204 kb/s
Width                       : 1 280 pixels
Height                      : 720 pixels
Display aspect ratio        : 16:9
Frame rate mode             : Constant
Frame rate                  : 24.000 FPS
Color space                 : YUV
Chroma subsampling          : 4:2:0
Bit depth                   : 8 bits
Scan type                   : Progressive
Bits/(Pixel*Frame)          : 0.054
Stream size                 : 1.15 GiB (90%)
Title                       : ISO Media file produced by Google Inc. Created on: 09/12/2017.
Encoded date                : UTC 2017-09-12 11:12:00
Tagged date                 : UTC 2017-09-12 11:12:00
Color range                 : Limited
Color primaries             : BT.709
Transfer characteristics    : BT.709
Matrix coefficients         : BT.709

Audio
ID                          : 2
Format                      : AAC
Format/Info                 : Advanced Audio Codec
Format profile              : LC
Codec ID                    : 40
Duration                    : 2 h 17 min
Bit rate mode               : Variable
Bit rate                    : 126 kb/s
Channel(s)                  : 2 channels
Channel positions           : Front: L R
Sampling rate               : 44.1 kHz
Frame rate                  : 43.066 FPS (1024 SPF)
Compression mode            : Lossy
Stream size                 : 123 MiB (9%)
Title                       : ISO Media file produced by Google Inc. Created on: 09/12/2017.
Encoded date                : UTC 2017-09-12 11:12:00
Tagged date                 : UTC 2017-09-12 11:12:00



Yuddham Sharanam (2017) Telugu - 720p - WEB-HD - AVC - AAC-TMVYuddham Sharanam (2017) Telugu - 720p - WEB-HD - AVC - AAC-TMVYuddham Sharanam (2017) Telugu - 720p - WEB-HD - AVC - AAC-TMVYuddham Sharanam (2017) Telugu - 720p - WEB-HD - AVC - AAC-TMVYuddham Sharanam (2017) Telugu - 720p - WEB-HD - AVC - AAC-TMVYuddham Sharanam (2017) Telugu - 720p - WEB-HD - AVC - AAC-TMV

SINGLE DIRECT FAST LINKS


http://www.heroupload.us/18c3da4395920187/Yuddham.Sharanam.2017.Telugu.WEB-HD.720p.AVC.AAC-TMV.mp4



http://filefloater.com/2zJM/Yuddham.Sharanam.2017.Telugu.WEB-HD.720p.AVC.AAC-TMV.mp4




Buy Premium From My Links & Support Me

Add a comment

Name:* E-Mail:*
Bold Italic Underline Strike | Align left Center Align right | Insert smilies Insert link URLInsert protected URL Select color | Add Hidden Text Insert Quote Convert selected text from selection to Cyrillic (Russian) alphabet Insert spoiler
Enter the code below: *