Rss
Calendar
«    May 2018    »
MonTueWedThuFriSatSun
 123456
78910111213
14151617181920
21222324252627
28293031 
» » Rangasthalam (2018) Telugu - 720p - HDRip - x264 - DD5.1 - ESub-TMV
  • Author: wroser
  • |
  • Comments: 0
  • |
  • Views: 24
Rangasthalam (2018) Telugu - 720p - HDRip - x264 - DD5.1 - ESub-TMV





General
Format                      : Matroska
Format version              : Version 4 / Version 2
File size                   : 1.36 GiB
Duration                    : 2 h 53 min
Overall bit rate            : 1 117 kb/s
Encoded date                : UTC 2018-05-13 20:22:46
Writing application         : mkvmerge v7.1.0 ('Good Love') 32bit built on Jul 27 2014 12:59:18
Writing library             : libebml v1.3.0 + libmatroska v1.4.1

Video
ID                          : 1
Format                      : AVC
Format/Info                 : Advanced Video Codec
Format profile              : Main@L3.1
Format settings, CABAC      : Yes
Format settings, RefFrames  : 4 frames
Codec ID                    : V_MPEG4/ISO/AVC
Duration                    : 2 h 53 min
Bit rate                    : 995 kb/s
Width                       : 1 280 pixels
Height                      : 544 pixels
Display aspect ratio        : 2.35:1
Frame rate mode             : Constant
Frame rate                  : 29.212 FPS
Color space                 : YUV
Chroma subsampling          : 4:2:0
Bit depth                   : 8 bits
Scan type                   : Progressive
Bits/(Pixel*Frame)          : 0.049
Stream size                 : 1.20 GiB (88%)
Writing library             : x264 core 112
Encoding settings           : cabac=1 / ref=2 / deblock=1:0:0 / analyse=0x1:0x111 / me=hex / subme=6 / psy=1 / psy_rd=1.00:0.00 / mixed_ref=0 / me_range=16 / chroma_me=1 / trellis=0 / 8x8dct=0 / cqm=0 / deadzone=21,11 / fast_pskip=1 / chroma_qp_offset=-2 / threads=12 / sliced_threads=0 / nr=0 / decimate=1 / interlaced=0 / constrained_intra=0 / bframes=2 / b_pyramid=2 / b_adapt=1 / b_bias=0 / direct=1 / weightb=0 / open_gop=0 / weightp=2 / keyint=290 / keyint_min=29 / scenecut=40 / intra_refresh=0 / rc_lookahead=40 / rc=abr / mbtree=1 / bitrate=995 / ratetol=1.0 / qcomp=0.60 / qpmin=3 / qpmax=51 / qpstep=4 / ip_ratio=1.40 / aq=1:1.00
Language                    : Telugu
Default                     : Yes
Forced                      : No
Color range                 : Limited
Color primaries             : BT.709
Transfer characteristics    : BT.709
Matrix coefficients         : BT.709

Audio
ID                          : 2
Format                      : AC-3
Format/Info                 : Audio Coding 3
Format settings, Endianness : Big
Codec ID                    : A_AC3
Duration                    : 2 h 53 min
Bit rate mode               : Constant
Bit rate                    : 128 kb/s
Channel(s)                  : 6 channels
Channel positions           : Front: L C R, Side: L R, LFE
Sampling rate               : 44.1 kHz
Frame rate                  : 28.711 FPS (1536 SPF)
Bit depth                   : 16 bits
Compression mode            : Lossy
Stream size                 : 159 MiB (11%)
Language                    : Telugu
Service kind                : Complete Main
Default                     : Yes
Forced                      : No

Text
ID                          : 3
Format                      : UTF-8
Codec ID                    : S_TEXT/UTF8
Codec ID/Info               : UTF-8 Plain Text
Duration                    : 2 h 50 min
Bit rate                    : 74 b/s
Count of elements           : 2381
Stream size                 : 92.3 KiB (0%)
Language                    : English
Default                     : Yes
Forced                      : No




Rangasthalam (2018) Telugu - 720p - HDRip - x264 - DD5.1 - ESub-TMVRangasthalam (2018) Telugu - 720p - HDRip - x264 - DD5.1 - ESub-TMVRangasthalam (2018) Telugu - 720p - HDRip - x264 - DD5.1 - ESub-TMVRangasthalam (2018) Telugu - 720p - HDRip - x264 - DD5.1 - ESub-TMV


SINGLE DIRECT FAST LINKS

http://www.heroupload.us/f3643589a14e0101/Rangasthalam.2018.Telugu.HDRip.720p.x264.5.1.ESub-TMV.mkv
http://www.heroupload.us/c3bf5165bcdf33f5/Rangasthalam.2018.Telugu.HDRip.720p.x264.5.1.ESub-TMV.srt



http://filefloater.com/1j6K/Rangasthalam.2018.Telugu.HDRip.720p.x264.5.1.ESub-TMV.mkv
http://filefloater.com/1j6L/Rangasthalam.2018.Telugu.HDRip.720p.x264.5.1.ESub-TMV.srt

Add a comment

Name:* E-Mail:*
Bold Italic Underline Strike | Align left Center Align right | Insert smilies Insert link URLInsert protected URL Select color | Add Hidden Text Insert Quote Convert selected text from selection to Cyrillic (Russian) alphabet Insert spoiler
Enter the code below: *