Rss
Calendar
«    May 2018    »
MonTueWedThuFriSatSun
 123456
78910111213
14151617181920
21222324252627
28293031 
» » Rangasthalam (2018) Telugu - 1080p - WEB-HD - AVC - AAC - ESub-TMV Exclusive
  • Author: wroser
  • |
  • Comments: 0
  • |
  • Views: 18
Rangasthalam (2018) Telugu - 1080p - WEB-HD - AVC - AAC - ESub-TMV Exclusive






General
Format                      : MPEG-4
Format profile              : Base Media
Codec ID                    : isom (isom)
File size                   : 9.60 GiB
Duration                    : 2 h 53 min
Overall bit rate mode       : Variable
Overall bit rate            : 7 910 kb/s
Encoded date                : UTC 2018-05-12 18:43:48
Tagged date                 : UTC 2018-05-12 18:43:48

Video
ID                          : 1
Format                      : AVC / AVC
Format/Info                 : Advanced Video Codec
Format profile              : Baseline@L4 / Baseline@L4
Format settings, CABAC      : No / No
Format settings, RefFrames  : 1 frame / 1 frame
Format settings, GOP        : M=1, N=25 / M=1, N=25
Codec ID                    : avc1
Codec ID/Info               : Advanced Video Coding
Duration                    : 2 h 53 min
Source duration             : 2 h 53 min
Bit rate                    : 7 709 kb/s
Width                       : 1 920 pixels
Original width              : 1 920 pixels / 1 920 pixels
Height                      : 824 pixels
Original height             : 824 pixels / 824 pixels
Display aspect ratio        : 2.35:1
Frame rate mode             : Variable
Frame rate                  : 29.212 FPS
Minimum frame rate          : 0.909 FPS
Maximum frame rate          : 30.296 FPS
Color space                 : YUV / YUV
Chroma subsampling          : 4:2:0 / 4:2:0
Bit depth                   : 8 bits / 8 bits
Scan type                   : Progressive / Progressive
Bits/(Pixel*Frame)          : 0.167
Stream size                 : 9.35 GiB (97%)
Source stream size          : 9.35 GiB (97%)
Tagged date                 : UTC 2018-05-12 18:50:03

Audio
ID                          : 2
Format                      : AAC
Format/Info                 : Advanced Audio Codec
Format profile              : LC
Codec ID                    : 40
Duration                    : 2 h 53 min
Bit rate mode               : Variable
Bit rate                    : 192 kb/s
Maximum bit rate            : 256 kb/s
Channel(s)                  : 2 channels
Channel positions           : Front: L R
Sampling rate               : 44.1 kHz
Frame rate                  : 43.066 FPS (1024 SPF)
Compression mode            : Lossy
Stream size                 : 243 MiB (2%)
Default                     : Yes
Alternate group             : 1
Tagged date                 : UTC 2018-05-12 18:50:03



Rangasthalam (2018) Telugu - 1080p - WEB-HD - AVC - AAC - ESub-TMV ExclusiveRangasthalam (2018) Telugu - 1080p - WEB-HD - AVC - AAC - ESub-TMV ExclusiveRangasthalam (2018) Telugu - 1080p - WEB-HD - AVC - AAC - ESub-TMV ExclusiveRangasthalam (2018) Telugu - 1080p - WEB-HD - AVC - AAC - ESub-TMV ExclusiveRangasthalam (2018) Telugu - 1080p - WEB-HD - AVC - AAC - ESub-TMV Exclusive


SINGLE DIRECT FAST LINKS

http://www.heroupload.us/bdeb8fc9630e7c4e/Rangasthalam.2018.Telugu.True.WEB-HD.1080p.UNTOUCHED.AVC.AAC-TMV.mp4


1GB LINKS


http://www.heroupload.us/051ab4934a1f03ad/Rangasthalam.2018.Telugu.True.WEB-HD.1080p.UNTOUCHED.AVC.AAC-TMV.part01.rar
http://www.heroupload.us/29e78f2f9a748fb9/Rangasthalam.2018.Telugu.True.WEB-HD.1080p.UNTOUCHED.AVC.AAC-TMV.part02.rar
http://www.heroupload.us/a0f9bcefa8cc5155/Rangasthalam.2018.Telugu.True.WEB-HD.1080p.UNTOUCHED.AVC.AAC-TMV.part03.rar
http://www.heroupload.us/ecda5db717ca9f89/Rangasthalam.2018.Telugu.True.WEB-HD.1080p.UNTOUCHED.AVC.AAC-TMV.part04.rar
http://www.heroupload.us/eb82342e1ad096f3/Rangasthalam.2018.Telugu.True.WEB-HD.1080p.UNTOUCHED.AVC.AAC-TMV.part05.rar
http://www.heroupload.us/dde0f6bd0b25614f/Rangasthalam.2018.Telugu.True.WEB-HD.1080p.UNTOUCHED.AVC.AAC-TMV.part06.rar
http://www.heroupload.us/af0c26601dc00585/Rangasthalam.2018.Telugu.True.WEB-HD.1080p.UNTOUCHED.AVC.AAC-TMV.part07.rar
http://www.heroupload.us/b37be6e9c6dc4911/Rangasthalam.2018.Telugu.True.WEB-HD.1080p.UNTOUCHED.AVC.AAC-TMV.part08.rar
http://www.heroupload.us/4057b2c1776e8797/Rangasthalam.2018.Telugu.True.WEB-HD.1080p.UNTOUCHED.AVC.AAC-TMV.part09.rar
http://www.heroupload.us/e36cc378d6029f73/Rangasthalam.2018.Telugu.True.WEB-HD.1080p.UNTOUCHED.AVC.AAC-TMV.part10.rar
http://www.heroupload.us/57776c6dcb39f853/Rangasthalam.2018.Telugu.True.WEB-HD.1080p.UNTOUCHED.AVC.AAC-TMV.srt



http://filefloater.com/1j6M/Rangasthalam.2018.Telugu.True.WEB-HD.1080p.UNTOUCHED.AVC.AAC-TMV.part01.rar
http://filefloater.com/1j6N/Rangasthalam.2018.Telugu.True.WEB-HD.1080p.UNTOUCHED.AVC.AAC-TMV.part02.rar
http://filefloater.com/t50/Rangasthalam.2018.Telugu.True.WEB-HD.1080p.UNTOUCHED.AVC.AAC-TMV.part03.rar
http://filefloater.com/t51/Rangasthalam.2018.Telugu.True.WEB-HD.1080p.UNTOUCHED.AVC.AAC-TMV.part04.rar
http://filefloater.com/t52/Rangasthalam.2018.Telugu.True.WEB-HD.1080p.UNTOUCHED.AVC.AAC-TMV.part05.rar
http://filefloater.com/t53/Rangasthalam.2018.Telugu.True.WEB-HD.1080p.UNTOUCHED.AVC.AAC-TMV.part06.rar
http://filefloater.com/t54/Rangasthalam.2018.Telugu.True.WEB-HD.1080p.UNTOUCHED.AVC.AAC-TMV.part07.rar
http://filefloater.com/t55/Rangasthalam.2018.Telugu.True.WEB-HD.1080p.UNTOUCHED.AVC.AAC-TMV.part08.rar
http://filefloater.com/t56/Rangasthalam.2018.Telugu.True.WEB-HD.1080p.UNTOUCHED.AVC.AAC-TMV.part09.rar
http://filefloater.com/t57/Rangasthalam.2018.Telugu.True.WEB-HD.1080p.UNTOUCHED.AVC.AAC-TMV.part10.rar
http://filefloater.com/t58/Rangasthalam.2018.Telugu.True.WEB-HD.1080p.UNTOUCHED.AVC.AAC-TMV.srt



Add a comment

Name:* E-Mail:*
Bold Italic Underline Strike | Align left Center Align right | Insert smilies Insert link URLInsert protected URL Select color | Add Hidden Text Insert Quote Convert selected text from selection to Cyrillic (Russian) alphabet Insert spoiler
Enter the code below: *