Rss
Calendar
«    August 2018    »
MonTueWedThuFriSatSun
 12345
6789101112
13141516171819
20212223242526
2728293031 
» » Manasuku Nachindi (2018) Telugu - 1080p - WEB-HD - AVC - AAC-TMV
  • Author: wroser
  • |
  • Comments: 0
  • |
  • Views: 13
Manasuku Nachindi (2018) Telugu - 1080p - WEB-HD - AVC - AAC-TMV





Format                      : Matroska
Format version              : Version 4 / Version 2
File size                   : 5.61 GiB
Duration                    : 2 h 24 min
Overall bit rate            : 5 554 kb/s
Encoded date                : UTC 2018-08-04 16:12:25
Writing application         : mkvmerge v8.2.0 ('World of Adventure') 64bit
Writing library             : libebml v1.3.1 + libmatroska v1.4.2

Video
ID                          : 1
Format                      : AVC
Format/Info                 : Advanced Video Codec
Format profile              : Main@L4.1
Format settings, CABAC      : Yes
Format settings, RefFrames  : 2 frames
Format settings, GOP        : M=3, N=25
Muxing mode                 : Container profile=Baseline@3.0
Codec ID                    : V_MPEG4/ISO/AVC
Duration                    : 2 h 24 min
Bit rate                    : 5 423 kb/s
Width                       : 1 918 pixels
Height                      : 1 078 pixels
Display aspect ratio        : 16:9
Frame rate mode             : Constant
Frame rate                  : 25.000 FPS
Color space                 : YUV
Chroma subsampling          : 4:2:0
Bit depth                   : 8 bits
Scan type                   : Progressive
Bits/(Pixel*Frame)          : 0.105
Stream size                 : 5.47 GiB (98%)
Language                    : Telugu
Default                     : Yes
Forced                      : No

Audio
ID                          : 2
Format                      : AAC
Format/Info                 : Advanced Audio Codec
Format profile              : LC
Codec ID                    : A_AAC
Duration                    : 2 h 24 min
Bit rate                    : 129 kb/s
Channel(s)                  : 2 channels
Channel positions           : Front: L R
Sampling rate               : 48.0 kHz
Frame rate                  : 46.875 FPS (1024 SPF)
Compression mode            : Lossy
Stream size                 : 133 MiB (2%)
Language                    : Telugu
Default                     : Yes
Forced                      : No


Manasuku Nachindi (2018) Telugu - 1080p - WEB-HD - AVC - AAC-TMVManasuku Nachindi (2018) Telugu - 1080p - WEB-HD - AVC - AAC-TMVManasuku Nachindi (2018) Telugu - 1080p - WEB-HD - AVC - AAC-TMVManasuku Nachindi (2018) Telugu - 1080p - WEB-HD - AVC - AAC-TMVManasuku Nachindi (2018) Telugu - 1080p - WEB-HD - AVC - AAC-TMV

SINGLE DIRECT FAST LINKS

http://www.heroupload.us/33f1915d69cf9dac/Manasuku.Nachindi.2018.Telugu.WEB-HD.1080p.UNTOUCHED.AVC.AAC-TMV.mkv


1GB LINKS

http://www.heroupload.us/0b99e6f7d19af7e5/Manasuku.Nachindi.2018.Telugu.WEB-HD.1080p.UNTOUCHED.AVC.AAC-TMV.part1.rar
http://www.heroupload.us/d6878425056f2f6f/Manasuku.Nachindi.2018.Telugu.WEB-HD.1080p.UNTOUCHED.AVC.AAC-TMV.part2.rar
http://www.heroupload.us/f9d4ce41a18f559d/Manasuku.Nachindi.2018.Telugu.WEB-HD.1080p.UNTOUCHED.AVC.AAC-TMV.part3.rar
http://www.heroupload.us/139ce930dca0c5e6/Manasuku.Nachindi.2018.Telugu.WEB-HD.1080p.UNTOUCHED.AVC.AAC-TMV.part4.rar
http://www.heroupload.us/4dd7d3a6609faf18/Manasuku.Nachindi.2018.Telugu.WEB-HD.1080p.UNTOUCHED.AVC.AAC-TMV.part5.rar
http://www.heroupload.us/6bf5b1722e7906f9/Manasuku.Nachindi.2018.Telugu.WEB-HD.1080p.UNTOUCHED.AVC.AAC-TMV.part6.rar



http://filefloater.com/1K5v/Manasuku.Nachindi.2018.Telugu.WEB-HD.1080p.UNTOUCHED.AVC.AAC-TMV.part1.rar
http://filefloater.com/1K5w/Manasuku.Nachindi.2018.Telugu.WEB-HD.1080p.UNTOUCHED.AVC.AAC-TMV.part2.rar
http://filefloater.com/1K5x/Manasuku.Nachindi.2018.Telugu.WEB-HD.1080p.UNTOUCHED.AVC.AAC-TMV.part3.rar
http://filefloater.com/1K5y/Manasuku.Nachindi.2018.Telugu.WEB-HD.1080p.UNTOUCHED.AVC.AAC-TMV.part4.rar
http://filefloater.com/1K5z/Manasuku.Nachindi.2018.Telugu.WEB-HD.1080p.UNTOUCHED.AVC.AAC-TMV.part5.rar
http://filefloater.com/1K5A/Manasuku.Nachindi.2018.Telugu.WEB-HD.1080p.UNTOUCHED.AVC.AAC-TMV.part6.rar



Buy Premium From My Links & Support Me

Add a comment

Name:* E-Mail:*
Bold Italic Underline Strike | Align left Center Align right | Insert smilies Insert link URLInsert protected URL Select color | Add Hidden Text Insert Quote Convert selected text from selection to Cyrillic (Russian) alphabet Insert spoiler
Enter the code below: *