Rss
Calendar
«    November 2017    »
MonTueWedThuFriSatSun
 12345
6789101112
13141516171819
20212223242526
27282930 
» » DJ Duvvada Jagannadham (2017) Telugu - 1080p - SDTV - x264 - DD5.1-TMV Exclusive
  • Author: wroser
  • |
  • Comments: 0
  • |
  • Views: 23
DJ Duvvada Jagannadham (2017) Telugu - 1080p - SDTV - x264 - DD5.1-TMV Exclusive





Format                      : Matroska
Format version              : Version 4 / Version 2
File size                   : 2.37 GiB
Duration                    : 2 h 20 min
Overall bit rate            : 2 414 kb/s
Encoded date                : UTC 2017-10-14 18:05:31
Writing application         : mkvmerge v7.0.0 ('Where We Going') 32bit built on Jun  9 2014 15:08:34
Writing library             : libebml v1.3.0 + libmatroska v1.4.1

Video
ID                          : 1
Format                      : AVC
Format/Info                 : Advanced Video Codec
Format profile              : High@L4
Format settings, CABAC      : Yes
Format settings, RefFrames  : 4 frames
Codec ID                    : V_MPEG4/ISO/AVC
Duration                    : 2 h 20 min
Bit rate                    : 2 252 kb/s
Width                       : 1 920 pixels
Height                      : 912 pixels
Display aspect ratio        : 2.105
Frame rate mode             : Constant
Frame rate                  : 25.000 FPS
Color space                 : YUV
Chroma subsampling          : 4:2:0
Bit depth                   : 8 bits
Scan type                   : Progressive
Bits/(Pixel*Frame)          : 0.051
Stream size                 : 2.21 GiB (93%)
Writing library             : x264 core 148 r2744 b97ae06
Encoding settings           : cabac=1 / ref=3 / deblock=1:0:0 / analyse=0x3:0x113 / me=hex / subme=7 / psy=1 / psy_rd=1.00:0.00 / mixed_ref=1 / me_range=16 / chroma_me=1 / trellis=1 / 8x8dct=1 / cqm=0 / deadzone=21,11 / fast_pskip=1 / chroma_qp_offset=-2 / threads=28 / lookahead_threads=4 / sliced_threads=0 / nr=0 / decimate=1 / interlaced=0 / bluray_compat=0 / constrained_intra=0 / bframes=3 / b_pyramid=2 / b_adapt=1 / b_bias=0 / direct=1 / weightb=1 / open_gop=0 / weightp=2 / keyint=250 / keyint_min=25 / scenecut=40 / intra_refresh=0 / rc_lookahead=40 / rc=2pass / mbtree=1 / bitrate=2252 / ratetol=1.0 / qcomp=0.60 / qpmin=0 / qpmax=69 / qpstep=4 / cplxblur=20.0 / qblur=0.5 / ip_ratio=1.40 / aq=1:1.00
Language                    : Telugu
Default                     : Yes
Forced                      : No

Audio
ID                          : 2
Format                      : AC-3
Format/Info                 : Audio Coding 3
Format settings, Endianness : Big
Codec ID                    : A_AC3
Duration                    : 2 h 20 min
Bit rate mode               : Constant
Bit rate                    : 160 kb/s
Channel(s)                  : 6 channels
Channel positions           : Front: L C R, Side: L R, LFE
Sampling rate               : 44.1 kHz
Frame rate                  : 28.711 FPS (1536 SPF)
Bit depth                   : 16 bits
Compression mode            : Lossy
Stream size                 : 161 MiB (7%)
Language                    : Telugu
Service kind                : Complete Main
Default                     : Yes
Forced                      : No


DJ Duvvada Jagannadham (2017) Telugu - 1080p - SDTV - x264 - DD5.1-TMV ExclusiveDJ Duvvada Jagannadham (2017) Telugu - 1080p - SDTV - x264 - DD5.1-TMV ExclusiveDJ Duvvada Jagannadham (2017) Telugu - 1080p - SDTV - x264 - DD5.1-TMV ExclusiveDJ Duvvada Jagannadham (2017) Telugu - 1080p - SDTV - x264 - DD5.1-TMV ExclusiveDJ Duvvada Jagannadham (2017) Telugu - 1080p - SDTV - x264 - DD5.1-TMV Exclusive



[B]SINGLE DIRECT FAST LINKS[/B]
http://www.heroupload.com/fd084fc335c03b10/DJ_Duvvada.Jagannadham.2017.Telugu.SDTV-Rip.1080p.x264.DD5.1-TMV.mkv


http://filefloater.com/6bu/DJ_Duvvada.Jagannadham.2017.Telugu.SDTV-Rip.1080p.x264.DD5.1-TMV.mkv

[B]700MB LINKS[/B]

http://www.heroupload.com/08f35dca6ead2968/DJ_Duvvada.Jagannadham.2017.Telugu.SDTV-Rip.1080p.x264.DD5.1-TMV.part1.rar
http://www.heroupload.com/79d21aa555521504/DJ_Duvvada.Jagannadham.2017.Telugu.SDTV-Rip.1080p.x264.DD5.1-TMV.part2.rar
http://www.heroupload.com/018c7223fbed8ce2/DJ_Duvvada.Jagannadham.2017.Telugu.SDTV-Rip.1080p.x264.DD5.1-TMV.part3.rar
http://www.heroupload.com/fbc74a5918ad1cd6/DJ_Duvvada.Jagannadham.2017.Telugu.SDTV-Rip.1080p.x264.DD5.1-TMV.part4.rar



http://filefloater.com/6bv/DJ_Duvvada.Jagannadham.2017.Telugu.SDTV-Rip.1080p.x264.DD5.1-TMV.part1.rar
http://filefloater.com/6bw/DJ_Duvvada.Jagannadham.2017.Telugu.SDTV-Rip.1080p.x264.DD5.1-TMV.part2.rar
http://filefloater.com/6bx/DJ_Duvvada.Jagannadham.2017.Telugu.SDTV-Rip.1080p.x264.DD5.1-TMV.part3.rar
http://filefloater.com/6by/DJ_Duvvada.Jagannadham.2017.Telugu.SDTV-Rip.1080p.x264.DD5.1-TMV.part4.rar

Add a comment

Name:* E-Mail:*
Bold Italic Underline Strike | Align left Center Align right | Insert smilies Insert link URLInsert protected URL Select color | Add Hidden Text Insert Quote Convert selected text from selection to Cyrillic (Russian) alphabet Insert spoiler
Enter the code below: *