Rss
Calendar
«    December 2018    »
MonTueWedThuFriSatSun
 12
3456789
10111213141516
17181920212223
24252627282930
31 
» » Mulk (2018) 720p - HDRip - x264 - AC3-BollywoodA2z
  • Author: wroser
  • |
  • Comments: 0
  • |
  • Views: 58
Mulk (2018) 720p - HDRip - x264 - AC3-BollywoodA2z



General
Format                                   : Matroska
Format version                           : Version 4 / Version 2
File size                                : 1.49 GiB
Duration                                 : 2 h 14 min
Overall bit rate                         : 1 580 kb/s

Video
ID                                       : 1
Format                                   : AVC
Format/Info                              : Advanced Video Codec
Duration                                 : 2 h 14 min
Bit rate                                 : 1 500 kb/s
Width                                    : 1 280 pixels
Height                                   : 544 pixels
Display aspect ratio                     : 2.35:1
Frame rate mode                          : Constant
Frame rate                               : 25.000 FPS
Color space                              : YUV
Chroma subsampling                       : 4:2:0
Bit depth                                : 8 bits
Scan type                                : Progressive
Bits/(Pixel*Frame)                       : 0.086
Stream size                              : 1.42 GiB (96%)
Title                                    : ~Ranvijay~

Audio
ID                                       : 2
Format                                   : AC-3
Format/Info                              : Audio Coding 3
Codec ID                                 : A_AC3
Duration                                 : 2 h 14 min
Bit rate mode                            : Constant
Bit rate                                 : 64.0 kb/s
Channel(s)                               : 2 channels
Channel positions                        : Front: L R
Sampling rate                            : 48.0 kHz
Frame rate                               : 31.250 FPS (1536 SPF)
Bit depth                                : 16 bits
Compression mode                         : Lossy
Delay relative to video                  : -80 ms
Stream size                              : 61.6 MiB (4%)
Title                                    : ~Ranvijay~
Language                                 : Hindi
Service kind                             : Complete Main
Default                                  : Yes
Forced                                   : Yes



Mulk (2018) 720p - HDRip - x264 - AC3-BollywoodA2z
Mulk (2018) 720p - HDRip - x264 - AC3-BollywoodA2z
Mulk (2018) 720p - HDRip - x264 - AC3-BollywoodA2z
Mulk (2018) 720p - HDRip - x264 - AC3-BollywoodA2z
Mulk (2018) 720p - HDRip - x264 - AC3-BollywoodA2z
Mulk (2018) 720p - HDRip - x264 - AC3-BollywoodA2z
Mulk (2018) 720p - HDRip - x264 - AC3-BollywoodA2z
Mulk (2018) 720p - HDRip - x264 - AC3-BollywoodA2z
Mulk (2018) 720p - HDRip - x264 - AC3-BollywoodA2z
Mulk (2018) 720p - HDRip - x264 - AC3-BollywoodA2z
Mulk (2018) 720p - HDRip - x264 - AC3-BollywoodA2z
Mulk (2018) 720p - HDRip - x264 - AC3-BollywoodA2z


SINGLE DIRECT FAST LINKS
http://www.heroupload.us/91b60049c109f24f/Mulk.2018.720p.WEB-RIP.x264.AC3.2.0-BollywoodA2z.mkv



http://filefloater.com/310F/Mulk.2018.720p.WEB-RIP.x264.AC3.2.0-BollywoodA2z.mkv



Buy Premium From My Links & Support Me

Add a comment

Name:* E-Mail:*
Bold Italic Underline Strike | Align left Center Align right | Insert smilies Insert link URLInsert protected URL Select color | Add Hidden Text Insert Quote Convert selected text from selection to Cyrillic (Russian) alphabet Insert spoiler
Enter the code below: *