Rss
Calendar
«    November 2018    »
MonTueWedThuFriSatSun
 1234
567891011
12131415161718
19202122232425
2627282930 
» » Christopher Robin (2018) 1080p BluRay x264 DTS-AvoHD
  • Author: wroser
  • |
  • Comments: 1
  • |
  • Views: 47
Christopher Robin (2018) 1080p BluRay x264 DTS-AvoHD





https://www.imdb.com/title/tt4575576/


Format                      : Matroska
Format version              : Version 4 / Version 2
File size                   : 7.57 GiB
Duration                    : 1 h 43 min
Overall bit rate            : 10.4 Mb/s
Movie name                  : Christopher.Robin.2018.1080p.BluRay.x264.DTS-AvoHD
Encoded date                : UTC 2018-10-26 06:29:17
Writing application         : mkvmerge v28.1.0 ('Morning Child') 64-bit
Writing library             : libebml v1.3.6 + libmatroska v1.4.9
Cover                       : Yes
Attachments                 : small_cover.jpg / small_cover_land.jpg / cover.jpg / cover_land.jpg

Video
ID                          : 1
Format                      : AVC
Format/Info                 : Advanced Video Codec
Format profile              : High@L4.1
Format settings, CABAC      : Yes
Format settings, RefFrames  : 4 frames
Codec ID                    : V_MPEG4/ISO/AVC
Duration                    : 1 h 43 min
Bit rate                    : 9 000 kb/s
Width                       : 1 920 pixels
Height                      : 804 pixels
Display aspect ratio        : 2.40:1
Frame rate mode             : Constant
Frame rate                  : 23.976 (24000/1001) FPS
Color space                 : YUV
Chroma subsampling          : 4:2:0
Bit depth                   : 8 bits
Scan type                   : Progressive
Bits/(Pixel*Frame)          : 0.243
Stream size                 : 6.47 GiB (86%)
Title                       : Christopher.Robin.2018.1080p.BluRay.x264.DTS-AvoHD
Writing library             : x264 core 155 r2901 7d0ff22
Encoding settings           : cabac=1 / ref=2 / deblock=1:0:0 / analyse=0x3:0x113 / me=hex / subme=6 / psy=1 / psy_rd=1.00:0.00 / mixed_ref=1 / me_range=16 / chroma_me=1 / trellis=1 / 8x8dct=1 / cqm=0 / deadzone=21,11 / fast_pskip=1 / chroma_qp_offset=-2 / threads=12 / lookahead_threads=2 / sliced_threads=0 / nr=0 / decimate=1 / interlaced=0 / bluray_compat=0 / constrained_intra=0 / bframes=3 / b_pyramid=2 / b_adapt=1 / b_bias=0 / direct=1 / weightb=1 / open_gop=0 / weightp=1 / keyint=240 / keyint_min=24 / scenecut=40 / intra_refresh=0 / rc_lookahead=30 / rc=abr / mbtree=1 / bitrate=9000 / ratetol=1.0 / qcomp=0.60 / qpmin=0 / qpmax=69 / qpstep=4 / vbv_maxrate=62500 / vbv_bufsize=78125 / nal_hrd=none / filler=0 / ip_ratio=1.40 / aq=1:1.00
Language                    : English
Default                     : Yes
Forced                      : No
Color range                 : Limited
Color primaries             : BT.709
Transfer characteristics    : BT.709
Matrix coefficients         : BT.709

Audio
ID                          : 2
Format                      : DTS
Format/Info                 : Digital Theater Systems
Mode                        : 16
Format settings, Endianness : Big
Codec ID                    : A_DTS
Duration                    : 1 h 43 min
Bit rate mode               : Constant
Bit rate                    : 1 509 kb/s
Channel(s)                  : 6 channels
Channel positions           : Front: L C R, Side: L R, LFE
Sampling rate               : 48.0 kHz
Frame rate                  : 93.750 FPS (512 SPF)
Bit depth                   : 24 bits
Compression mode            : Lossy
Stream size                 : 1.10 GiB (14%)
Title                       : Christopher.Robin.2018.1080p.BluRay.x264.DTS-AvoHD
Language                    : English
Default                     : Yes
Forced                      : No

Text
ID                          : 3
Format                      : UTF-8
Codec ID                    : S_TEXT/UTF8
Codec ID/Info               : UTF-8 Plain Text
Duration                    : 1 h 39 min
Bit rate                    : 66 b/s
Count of elements           : 1701
Stream size                 : 48.6 KiB (0%)
Language                    : English
Default                     : Yes
Forced                      : No

Menu
00:00:00.000                : en:Chapter 1
00:01:43.395                : en:Chapter 2
00:07:36.039                : en:Chapter 3
00:12:32.043                : en:Chapter 4
00:23:47.301                : en:Chapter 5
00:32:17.519                : en:Chapter 6
00:44:35.464                : en:Chapter 7
00:54:39.151                : en:Chapter 8
00:59:13.508                : en:Chapter 9
01:08:01.369                : en:Chapter 10
01:18:45.262                : en:Chapter 11
01:29:58.894                : en:Chapter 12
01:36:03.549                : en:Chapter 13
01:38:31.948                : en:Chapter 14



Christopher Robin (2018) 1080p BluRay x264 DTS-AvoHDChristopher Robin (2018) 1080p BluRay x264 DTS-AvoHDChristopher Robin (2018) 1080p BluRay x264 DTS-AvoHD


SINGLE DIRECT FAST LINKS

http://www.heroupload.us/4104472b3ce4dcad/Christopher.Robin.2018.1080p.BluRay.x264.DTS-AvoHD.mkv


1GB LINKS


http://www.heroupload.us/ab0ace3e5d44e7af/Christopher.Robin.2018.1080p.BluRay.x264.DTS-AvoHD.part1.rar
http://www.heroupload.us/df0af6661dc12fff/Christopher.Robin.2018.1080p.BluRay.x264.DTS-AvoHD.part2.rar
http://www.heroupload.us/81fd5a3d47443995/Christopher.Robin.2018.1080p.BluRay.x264.DTS-AvoHD.part3.rar
http://www.heroupload.us/6a16c25f6e29a6a8/Christopher.Robin.2018.1080p.BluRay.x264.DTS-AvoHD.part4.rar
http://www.heroupload.us/ab993be14bdc7e45/Christopher.Robin.2018.1080p.BluRay.x264.DTS-AvoHD.part5.rar
http://www.heroupload.us/3abd224c05c61b67/Christopher.Robin.2018.1080p.BluRay.x264.DTS-AvoHD.part6.rar
http://www.heroupload.us/5a38e09d0b32dfcb/Christopher.Robin.2018.1080p.BluRay.x264.DTS-AvoHD.part7.rar
http://www.heroupload.us/d2729e95b301485e/Christopher.Robin.2018.1080p.BluRay.x264.DTS-AvoHD.part8.rar



http://filefloater.com/V3t/Christopher.Robin.2018.1080p.BluRay.x264.DTS-AvoHD.part1.rar
http://filefloater.com/V3u/Christopher.Robin.2018.1080p.BluRay.x264.DTS-AvoHD.part2.rar
http://filefloater.com/V3v/Christopher.Robin.2018.1080p.BluRay.x264.DTS-AvoHD.part3.rar
http://filefloater.com/V3w/Christopher.Robin.2018.1080p.BluRay.x264.DTS-AvoHD.part4.rar
http://filefloater.com/V3x/Christopher.Robin.2018.1080p.BluRay.x264.DTS-AvoHD.part5.rar
http://filefloater.com/V3y/Christopher.Robin.2018.1080p.BluRay.x264.DTS-AvoHD.part6.rar
http://filefloater.com/V3z/Christopher.Robin.2018.1080p.BluRay.x264.DTS-AvoHD.part7.rar
http://filefloater.com/1L5o/Christopher.Robin.2018.1080p.BluRay.x264.DTS-AvoHD.part8.rar



Buy Premium From My Links & Support Me
  • 1
伟大的网站“haoessays.wordpress.com”,充满了技术信息,视频教程真是太棒了,地牢是我最喜欢的一个,非常感谢你发帖,坚持下去,保持幸福。

Add a comment

Name:* E-Mail:*
Bold Italic Underline Strike | Align left Center Align right | Insert smilies Insert link URLInsert protected URL Select color | Add Hidden Text Insert Quote Convert selected text from selection to Cyrillic (Russian) alphabet Insert spoiler
Enter the code below: *