Rss
Calendar
«    December 2018    »
MonTueWedThuFriSatSun
 12
3456789
10111213141516
17181920212223
24252627282930
31 
» » Nawab (2018) Telugu Line - 1080p - WEB-HD - x264 - MP3-MTR
  • Author: wroser
  • |
  • Comments: 0
  • |
  • Views: 54
Nawab (2018) Telugu Line - 1080p - WEB-HD - x264 - MP3-MTR





Format                      : Matroska
Format version              : Version 4 / Version 2
File size                   : 4.43 GiB
Duration                    : 2 h 16 min
Overall bit rate            : 4 640 kb/s
Encoded date                : UTC 2018-11-14 08:53:40
Writing application         : mkvmerge v7.8.0 ('River Man') 64bit built on Mar 27 2015 16:31:37
Writing library             : libebml v1.3.1 + libmatroska v1.4.2

Video
ID                          : 1
Format                      : AVC
Format/Info                 : Advanced Video Codec
Format profile              : High@L4.2
Format settings, CABAC      : Yes
Format settings, RefFrames  : 4 frames
Codec ID                    : V_MPEG4/ISO/AVC
Duration                    : 2 h 16 min
Bit rate                    : 4 497 kb/s
Width                       : 1 920 pixels
Height                      : 1 080 pixels
Display aspect ratio        : 16:9
Frame rate mode             : Constant
Frame rate                  : 60.000 FPS
Color space                 : YUV
Chroma subsampling          : 4:2:0
Bit depth                   : 8 bits
Scan type                   : Progressive
Bits/(Pixel*Frame)          : 0.036
Stream size                 : 4.30 GiB (97%)
Writing library             : x264 core 148 r2744 b97ae06
Encoding settings           : cabac=1 / ref=1 / deblock=1:0:0 / analyse=0x3:0x3 / me=dia / subme=1 / psy=1 / psy_rd=1.00:0.00 / mixed_ref=0 / me_range=16 / chroma_me=1 / trellis=0 / 8x8dct=1 / cqm=0 / deadzone=21,11 / fast_pskip=1 / chroma_qp_offset=0 / threads=12 / lookahead_threads=2 / sliced_threads=0 / nr=0 / decimate=1 / interlaced=0 / bluray_compat=0 / constrained_intra=0 / bframes=3 / b_pyramid=2 / b_adapt=1 / b_bias=0 / direct=1 / weightb=1 / open_gop=0 / weightp=1 / keyint=600 / keyint_min=60 / scenecut=40 / intra_refresh=0 / rc=abr / mbtree=0 / bitrate=4497 / ratetol=1.0 / qcomp=0.60 / qpmin=0 / qpmax=69 / qpstep=4 / ip_ratio=1.40 / pb_ratio=1.30 / aq=1:1.00
Default                     : Yes
Forced                      : No

Audio
ID                          : 2
Format                      : MPEG Audio
Format version              : Version 1
Format profile              : Layer 3
Mode                        : Joint stereo
Mode extension              : MS Stereo
Codec ID                    : A_MPEG/L3
Codec ID/Hint               : MP3
Duration                    : 2 h 16 min
Bit rate mode               : Constant
Bit rate                    : 128 kb/s
Channel(s)                  : 2 channels
Sampling rate               : 48.0 kHz
Frame rate                  : 41.667 FPS (1152 SPF)
Compression mode            : Lossy
Stream size                 : 125 MiB (3%)
Writing library             : LAME3.99r
Encoding settings           : -m j -V 4 -q 3 -lowpass 17 -b 128
Default                     : Yes
Forced                      : No



Nawab (2018) Telugu Line - 1080p - WEB-HD - x264 - MP3-MTRNawab (2018) Telugu Line - 1080p - WEB-HD - x264 - MP3-MTRNawab (2018) Telugu Line - 1080p - WEB-HD - x264 - MP3-MTRNawab (2018) Telugu Line - 1080p - WEB-HD - x264 - MP3-MTRNawab (2018) Telugu Line - 1080p - WEB-HD - x264 - MP3-MTRNawab (2018) Telugu Line - 1080p - WEB-HD - x264 - MP3-MTRNawab (2018) Telugu Line - 1080p - WEB-HD - x264 - MP3-MTRNawab (2018) Telugu Line - 1080p - WEB-HD - x264 - MP3-MTR


SINGLE DIRECT FAST LINKS
https://www.heroupload.us/c082bce96d9da3ea/Nawab.2018.Telugu.1080p.HD.AVC.x264.Line.Audio-MTR.mkv


http://filefloater.com/Vbi/Nawab.2018.Telugu.1080p.HD.AVC.x264.Line.Audio-MTR.mkv

1GB LINKS

https://www.heroupload.us/5dfe6c4c25ef8a74/Nawab.2018.Telugu.1080p.HD.AVC.x264.Line.Audio-MTR.part1.rar
https://www.heroupload.us/3f10999da7c0999a/Nawab.2018.Telugu.1080p.HD.AVC.x264.Line.Audio-MTR.part2.rar
https://www.heroupload.us/efdae9296785b147/Nawab.2018.Telugu.1080p.HD.AVC.x264.Line.Audio-MTR.part3.rar
https://www.heroupload.us/eca68cf9f90dc775/Nawab.2018.Telugu.1080p.HD.AVC.x264.Line.Audio-MTR.part4.rar
https://www.heroupload.us/ba9ef2e468ba2879/Nawab.2018.Telugu.1080p.HD.AVC.x264.Line.Audio-MTR.part5.rar



http://filefloater.com/Vbj/Nawab.2018.Telugu.1080p.HD.AVC.x264.Line.Audio-MTR.part1.rar
http://filefloater.com/Vbk/Nawab.2018.Telugu.1080p.HD.AVC.x264.Line.Audio-MTR.part2.rar
http://filefloater.com/Vbl/Nawab.2018.Telugu.1080p.HD.AVC.x264.Line.Audio-MTR.part3.rar
http://filefloater.com/Vbm/Nawab.2018.Telugu.1080p.HD.AVC.x264.Line.Audio-MTR.part4.rar
http://filefloater.com/Vbn/Nawab.2018.Telugu.1080p.HD.AVC.x264.Line.Audio-MTR.part5.rar




Buy Premium From My Links & Support Me

Add a comment

Name:* E-Mail:*
Bold Italic Underline Strike | Align left Center Align right | Insert smilies Insert link URLInsert protected URL Select color | Add Hidden Text Insert Quote Convert selected text from selection to Cyrillic (Russian) alphabet Insert spoiler
Enter the code below: *