Rss
Calendar
«    February 2019    »
MonTueWedThuFriSatSun
 123
45678910
11121314151617
18192021222324
25262728 
» » Thugs of Hindostan (2018) 720p - BluRay - x264 - DD5.1 (Multi Audio) - BollywoodA2z
  • Author: wroser
  • |
  • Comments: 0
  • |
  • Views: 369
Thugs of Hindostan (2018) 720p - BluRay - x264 - DD5.1 (Multi Audio) - BollywoodA2z





Format                                   : Matroska
Format version                           : Version 4
File size                                : 1.66 GiB
Duration                                 : 2 h 44 min
Overall bit rate                         : 1 447 kb/s
Encoded date                             : UTC 2019-01-18 10:04:41
Writing application                      : mkvmerge v29.0.0 ('Like It Or Not') 32-bit
Writing library                          : libebml v1.3.6 + libmatroska v1.4.9

Video
ID                                       : 1
Format                                   : AVC
Format/Info                              : Advanced Video Codec
Format profile                           : High@L5.1
Format settings                          : CABAC / 5 Ref Frames
Format settings, CABAC                   : Yes
Format settings, RefFrames               : 5 frames
Codec ID                                 : V_MPEG4/ISO/AVC
Duration                                 : 2 h 44 min
Bit rate                                 : 1 101 kb/s
Width                                    : 1 280 pixels
Height                                   : 536 pixels
Display aspect ratio                     : 2.40:1
Frame rate mode                          : Constant
Frame rate                               : 24.000 FPS
Color space                              : YUV
Chroma subsampling                       : 4:2:0
Bit depth                                : 8 bits
Scan type                                : Progressive
Bits/(Pixel*Frame)                       : 0.067
Stream size                              : 1.27 GiB (76%)
Writing library                          : x264 core 152 r2851 ba24899
Encoding settings                        : cabac=1 / ref=5 / deblock=1:0:0 / analyse=0x3:0x113 / me=hex / subme=8 / psy=1 / psy_rd=1.00:0.00 / mixed_ref=1 / me_range=16 / chroma_me=1 / trellis=2 / 8x8dct=1 / cqm=0 / deadzone=21,11 / fast_pskip=1 / chroma_qp_offset=-2 / threads=17 / lookahead_threads=2 / sliced_threads=0 / nr=0 / decimate=1 / interlaced=0 / bluray_compat=0 / constrained_intra=0 / bframes=3 / b_pyramid=2 / b_adapt=1 / b_bias=0 / direct=3 / weightb=1 / open_gop=0 / weightp=2 / keyint=240 / keyint_min=24 / scenecut=40 / intra_refresh=0 / rc_lookahead=50 / rc=2pass / mbtree=1 / bitrate=1101 / ratetol=1.0 / qcomp=0.60 / qpmin=0 / qpmax=69 / qpstep=4 / cplxblur=20.0 / qblur=0.5 / vbv_maxrate=300000 / vbv_bufsize=300000 / nal_hrd=none / filler=0 / ip_ratio=1.40 / aq=1:1.00
Default                                  : Yes
Forced                                   : No

Audio #1
ID                                       : 2
Format                                   : AC-3
Format/Info                              : Audio Coding 3
Commercial name                          : Dolby Digital
Codec ID                                 : A_AC3
Duration                                 : 2 h 44 min
Bit rate mode                            : Constant
Bit rate                                 : 112 kb/s
Channel(s)                               : 6 channels
Channel layout                           : L R C LFE Ls Rs
Sampling rate                            : 48.0 kHz
Frame rate                               : 31.250 FPS (1536 SPF)
Bit depth                                : 16 bits
Compression mode                         : Lossy
Stream size                              : 132 MiB (8%)
Language                                 : Tamil
Service kind                             : Complete Main
Default                                  : No
Forced                                   : No

Audio #2
ID                                       : 3
Format                                   : AC-3
Format/Info                              : Audio Coding 3
Commercial name                          : Dolby Digital
Codec ID                                 : A_AC3
Duration                                 : 2 h 44 min
Bit rate mode                            : Constant
Bit rate                                 : 112 kb/s
Channel(s)                               : 6 channels
Channel layout                           : L R C LFE Ls Rs
Sampling rate                            : 48.0 kHz
Frame rate                               : 31.250 FPS (1536 SPF)
Bit depth                                : 16 bits
Compression mode                         : Lossy
Stream size                              : 132 MiB (8%)
Language                                 : Telugu
Service kind                             : Complete Main
Default                                  : No
Forced                                   : No

Audio #3
ID                                       : 4
Format                                   : AC-3
Format/Info                              : Audio Coding 3
Commercial name                          : Dolby Digital
Codec ID                                 : A_AC3
Duration                                 : 2 h 44 min
Bit rate mode                            : Constant
Bit rate                                 : 112 kb/s
Channel(s)                               : 6 channels
Channel layout                           : L R C LFE Ls Rs
Sampling rate                            : 48.0 kHz
Frame rate                               : 31.250 FPS (1536 SPF)
Bit depth                                : 16 bits
Compression mode                         : Lossy
Stream size                              : 132 MiB (8%)
Language                                 : Hindi
Service kind                             : Complete Main
Default                                  : Yes
Forced                                   : No

Text
ID                                       : 5
Format                                   : PGS
Muxing mode                              : zlib
Codec ID                                 : S_HDMV/PGS
Codec ID/Info                            : Picture based subtitle format used on BDs/HD-DVDs
Duration                                 : 2 h 37 min
Bit rate                                 : 18.8 kb/s
Count of elements                        : 2554
Stream size                              : 21.1 MiB (1%)
Language                                 : English
Default                                  : Yes
Forced                                   : Yes

Menu
00:00:00.000                             : :Chapter 1
00:00:10.000                             : :Chapter 2
00:00:42.000                             : :Chapter 3
00:05:10.500                             : :Chapter 4
00:16:17.000                             : :Chapter 5
00:24:29.000                             : :Chapter 6
00:32:58.000                             : :Chapter 7
00:36:34.500                             : :Chapter 8
00:41:24.000                             : :Chapter 9
00:43:40.000                             : :Chapter 10
00:49:56.000                             : :Chapter 11
00:56:33.000                             : :Chapter 12
01:03:03.000                             : :Chapter 13
01:12:10.000                             : :Chapter 14
01:16:44.000                             : :Chapter 15
01:20:59.000                             : :Chapter 16
01:30:41.500                             : :Chapter 17
01:38:38.500                             : :Chapter 18
01:46:14.500                             : :Chapter 19
01:54:52.000                             : :Chapter 20
02:01:31.000                             : :Chapter 21
02:06:24.000                             : :Chapter 22
02:12:39.500                             : :Chapter 23
02:20:30.000                             : :Chapter 24
02:31:30.000                             : :Chapter 25
02:37:56.000                             : :Chapter 26


Thugs of Hindostan (2018) 720p - BluRay - x264 - DD5.1 (Multi Audio) - BollywoodA2z
Thugs of Hindostan (2018) 720p - BluRay - x264 - DD5.1 (Multi Audio) - BollywoodA2z
Thugs of Hindostan (2018) 720p - BluRay - x264 - DD5.1 (Multi Audio) - BollywoodA2z
Thugs of Hindostan (2018) 720p - BluRay - x264 - DD5.1 (Multi Audio) - BollywoodA2z
Thugs of Hindostan (2018) 720p - BluRay - x264 - DD5.1 (Multi Audio) - BollywoodA2z
Thugs of Hindostan (2018) 720p - BluRay - x264 - DD5.1 (Multi Audio) - BollywoodA2z
Thugs of Hindostan (2018) 720p - BluRay - x264 - DD5.1 (Multi Audio) - BollywoodA2z
Thugs of Hindostan (2018) 720p - BluRay - x264 - DD5.1 (Multi Audio) - BollywoodA2z
Thugs of Hindostan (2018) 720p - BluRay - x264 - DD5.1 (Multi Audio) - BollywoodA2z
Thugs of Hindostan (2018) 720p - BluRay - x264 - DD5.1 (Multi Audio) - BollywoodA2z
Thugs of Hindostan (2018) 720p - BluRay - x264 - DD5.1 (Multi Audio) - BollywoodA2z
Thugs of Hindostan (2018) 720p - BluRay - x264 - DD5.1 (Multi Audio) - BollywoodA2z

SINGLE DIRECT FAST LINKS

https://www.heroupload.com/d197679c7f8b5cf5/Thugs.Of.Hindostan.2018.720p.BDRip.x264.DD5.1.Esubs.Hindi+Tamil+Tlugu-BollywoodA2z.mkv





Buy Premium From My Links & Support Me

Add a comment

Name:* E-Mail:*
Bold Italic Underline Strike | Align left Center Align right | Insert smilies Insert link URLInsert protected URL Select color | Add Hidden Text Insert Quote Convert selected text from selection to Cyrillic (Russian) alphabet Insert spoiler
Enter the code below: *