Rss
Calendar
«    February 2019    »
MonTueWedThuFriSatSun
 123
45678910
11121314151617
18192021222324
25262728 
» » Ratham (2018) Telugu - 1080p - WEB-DL - UNTOUCHED - AVC - DD5.1-TMV
  • Author: wroser
  • |
  • Comments: 0
  • |
  • Views: 448
Ratham (2018) Telugu - 1080p - WEB-DL - UNTOUCHED - AVC - DD5.1-TMV





Format                                   : Matroska
Format version                           : Version 4
File size                                : 5.10 GiB
Duration                                 : 2 h 12 min
Overall bit rate                         : 5 509 kb/s
Encoded date                             : UTC 2019-01-23 17:39:41
Writing application                      : mkvmerge v29.0.0 ('Like It Or Not') 32-bit
Writing library                          : libebml v1.3.6 + libmatroska v1.4.9

Video
ID                                       : 1
Format                                   : AVC
Format/Info                              : Advanced Video Codec
Format profile                           : High@L4
Format settings                          : CABAC / 4 Ref Frames
Format settings, CABAC                   : Yes
Format settings, RefFrames               : 4 frames
Codec ID                                 : V_MPEG4/ISO/AVC
Duration                                 : 2 h 12 min
Bit rate                                 : 4 867 kb/s
Width                                    : 1 920 pixels
Height                                   : 816 pixels
Display aspect ratio                     : 2.35:1
Frame rate mode                          : Constant
Frame rate                               : 24.000 FPS
Color space                              : YUV
Chroma subsampling                       : 4:2:0
Bit depth                                : 8 bits
Scan type                                : Progressive
Bits/(Pixel*Frame)                       : 0.129
Stream size                              : 4.51 GiB (88%)
Language                                 : Telugu
Default                                  : Yes
Forced                                   : No
Color range                              : Limited
Color primaries                          : BT.709
Transfer characteristics                 : BT.709
Matrix coefficients                      : BT.709

Audio
ID                                       : 2
Format                                   : E-AC-3
Format/Info                              : Enhanced AC-3
Commercial name                          : Dolby Digital Plus
Codec ID                                 : A_EAC3
Duration                                 : 2 h 12 min
Bit rate mode                            : Constant
Bit rate                                 : 640 kb/s
Channel(s)                               : 6 channels
Channel layout                           : L R C LFE Ls Rs
Sampling rate                            : 48.0 kHz
Frame rate                               : 31.250 FPS (1536 SPF)
Compression mode                         : Lossy
Stream size                              : 607 MiB (12%)
Language                                 : Telugu
Service kind                             : Complete Main
Default                                  : No
Forced                                   : No

Text
ID                                       : 3
Format                                   : UTF-8
Codec ID                                 : S_TEXT/UTF8
Codec ID/Info                            : UTF-8 Plain Text
Duration                                 : 2 h 9 min
Bit rate                                 : 45 b/s
Count of elements                        : 1290
Stream size                              : 43.0 KiB (0%)
Language                                 : English
Default                                  : No
Forced                                   : No


Ratham (2018) Telugu - 1080p - WEB-DL - UNTOUCHED - AVC - DD5.1-TMV

SINGLE DIRECT FAST LINKS

https://www.heroupload.com/abb07706d7d9944c/Ratham.2018.Telugu.WEB-DL.1080p.AVC.UNTOUCHED.DD5.1.ESub-TMV.mkv


1GB LINKS



https://www.heroupload.com/51bb0ffc9647d08d/Ratham.2018.Telugu.WEB-DL.1080p.AVC.UNTOUCHED.DD5.1.ESub-TMV.part1.rar
https://www.heroupload.com/f5e0ecea8ec01330/Ratham.2018.Telugu.WEB-DL.1080p.AVC.UNTOUCHED.DD5.1.ESub-TMV.part2.rar
https://www.heroupload.com/543c3601611934c4/Ratham.2018.Telugu.WEB-DL.1080p.AVC.UNTOUCHED.DD5.1.ESub-TMV.part3.rar
https://www.heroupload.com/ffcfd2f32700b557/Ratham.2018.Telugu.WEB-DL.1080p.AVC.UNTOUCHED.DD5.1.ESub-TMV.part4.rar
https://www.heroupload.com/c6574e0dc07e64d6/Ratham.2018.Telugu.WEB-DL.1080p.AVC.UNTOUCHED.DD5.1.ESub-TMV.part5.rar
https://www.heroupload.com/463a531bb42a82cf/Ratham.2018.Telugu.WEB-DL.1080p.AVC.UNTOUCHED.DD5.1.ESub-TMV.part6.rar


Buy Premium From My Links & Support Me

Add a comment

Name:* E-Mail:*
Bold Italic Underline Strike | Align left Center Align right | Insert smilies Insert link URLInsert protected URL Select color | Add Hidden Text Insert Quote Convert selected text from selection to Cyrillic (Russian) alphabet Insert spoiler
Enter the code below: *