Rss
Calendar
«    February 2019    »
MonTueWedThuFriSatSun
 123
45678910
11121314151617
18192021222324
25262728 
» » K.G.F: Chapter 1 (2018) Telugu - 1080p - WEB-DL - UNTOUCHED - AVC - DD5.1-DDR
  • Author: wroser
  • |
  • Comments: 0
  • |
  • Views: 43
K.G.F: Chapter 1 (2018) Telugu - 1080p - WEB-DL - UNTOUCHED - AVC - DD5.1-DDR




Format                                   : Matroska
Format version                           : Version 4
File size                                : 7.67 GiB
Duration                                 : 2 h 34 min
Overall bit rate                         : 7 101 kb/s
Encoded date                             : UTC 2019-02-04 19:25:31
Writing application                      : mkvmerge v25.0.0 ('Prog Noir') 32-bit
Writing library                          : libebml v1.3.6 + libmatroska v1.4.9

Video
ID                                       : 1
Format                                   : AVC
Format/Info                              : Advanced Video Codec
Format profile                           : High@L4
Format settings                          : CABAC / 4 Ref Frames
Format settings, CABAC                   : Yes
Format settings, RefFrames               : 4 frames
Codec ID                                 : V_MPEG4/ISO/AVC
Duration                                 : 2 h 34 min
Bit rate                                 : 6 459 kb/s
Width                                    : 1 920 pixels
Height                                   : 816 pixels
Display aspect ratio                     : 2.35:1
Frame rate mode                          : Constant
Frame rate                               : 25.000 FPS
Color space                              : YUV
Chroma subsampling                       : 4:2:0
Bit depth                                : 8 bits
Scan type                                : Progressive
Bits/(Pixel*Frame)                       : 0.165
Stream size                              : 6.97 GiB (91%)
Default                                  : Yes
Forced                                   : No
Color range                              : Limited
Color primaries                          : BT.709
Transfer characteristics                 : BT.709
Matrix coefficients                      : BT.709

Audio
ID                                       : 2
Format                                   : E-AC-3
Format/Info                              : Enhanced AC-3
Commercial name                          : Dolby Digital Plus
Codec ID                                 : A_EAC3
Duration                                 : 2 h 34 min
Bit rate mode                            : Constant
Bit rate                                 : 640 kb/s
Channel(s)                               : 6 channels
Channel layout                           : L R C LFE Ls Rs
Sampling rate                            : 48.0 kHz
Frame rate                               : 31.250 FPS (1536 SPF)
Compression mode                         : Lossy
Stream size                              : 708 MiB (9%)
Title                                    : Telugu
Language                                 : Telugu
Service kind                             : Complete Main
Default                                  : No
Forced                                   : No

Text
ID                                       : 3
Format                                   : UTF-8
Codec ID                                 : S_TEXT/UTF8
Codec ID/Info                            : UTF-8 Plain Text
Duration                                 : 2 h 29 min
Bit rate                                 : 56 b/s
Count of elements                        : 2231
Stream size                              : 61.8 KiB (0%)
Title                                    : English [SDH]
Language                                 : English
Default                                  : No
Forced                                   : No



K.G.F: Chapter 1 (2018) Telugu - 1080p - WEB-DL - UNTOUCHED - AVC - DD5.1-DDRK.G.F: Chapter 1 (2018) Telugu - 1080p - WEB-DL - UNTOUCHED - AVC - DD5.1-DDRK.G.F: Chapter 1 (2018) Telugu - 1080p - WEB-DL - UNTOUCHED - AVC - DD5.1-DDRK.G.F: Chapter 1 (2018) Telugu - 1080p - WEB-DL - UNTOUCHED - AVC - DD5.1-DDRK.G.F: Chapter 1 (2018) Telugu - 1080p - WEB-DL - UNTOUCHED - AVC - DD5.1-DDRK.G.F: Chapter 1 (2018) Telugu - 1080p - WEB-DL - UNTOUCHED - AVC - DD5.1-DDR


SINGLE DIRECT FAST LINKS

https://www.heroupload.com/b54aff187eb6c09a/K.G.F.Chapter.1.2018.Telugu.WEB-DL.1080p.UNTOUCHED.AVC.DD5.1.ESub-DDR.mkv


1GB LINKS

https://www.heroupload.com/541aecbde659030e/K.G.F.Chapter.1.2018.Telugu.WEB-DL.1080p.UNTOUCHED.AVC.DD5.1.ESub-DDR.part1.rar
https://www.heroupload.com/4ccb530318c76d7f/K.G.F.Chapter.1.2018.Telugu.WEB-DL.1080p.UNTOUCHED.AVC.DD5.1.ESub-DDR.part2.rar
https://www.heroupload.com/1e5dfeb984396f01/K.G.F.Chapter.1.2018.Telugu.WEB-DL.1080p.UNTOUCHED.AVC.DD5.1.ESub-DDR.part3.rar
https://www.heroupload.com/a24502aa36c455f3/K.G.F.Chapter.1.2018.Telugu.WEB-DL.1080p.UNTOUCHED.AVC.DD5.1.ESub-DDR.part4.rar
https://www.heroupload.com/b33ae04678247f00/K.G.F.Chapter.1.2018.Telugu.WEB-DL.1080p.UNTOUCHED.AVC.DD5.1.ESub-DDR.part5.rar
https://www.heroupload.com/9a228ab93a949e17/K.G.F.Chapter.1.2018.Telugu.WEB-DL.1080p.UNTOUCHED.AVC.DD5.1.ESub-DDR.part6.rar
https://www.heroupload.com/36c1d44bd366cb9f/K.G.F.Chapter.1.2018.Telugu.WEB-DL.1080p.UNTOUCHED.AVC.DD5.1.ESub-DDR.part7.rar
https://www.heroupload.com/06a1beb29a4fcc0a/K.G.F.Chapter.1.2018.Telugu.WEB-DL.1080p.UNTOUCHED.AVC.DD5.1.ESub-DDR.part8.rar


Buy Premium From My Links & Support Me

Add a comment

Name:* E-Mail:*
Bold Italic Underline Strike | Align left Center Align right | Insert smilies Insert link URLInsert protected URL Select color | Add Hidden Text Insert Quote Convert selected text from selection to Cyrillic (Russian) alphabet Insert spoiler
Enter the code below: *