Rss
Calendar
«    February 2019    »
MonTueWedThuFriSatSun
 123
45678910
11121314151617
18192021222324
25262728 
» » F2: Fun and Frustration (2019) Telugu - 720p - UNTOUCHED - AVC - DD5.1 - Esubs-TMV
  • Author: wroser
  • |
  • Comments: 0
  • |
  • Views: 377
F2: Fun and Frustration (2019) Telugu - 720p - UNTOUCHED - AVC - DD5.1 - Esubs-TMV





Format                                   : Matroska
Format version                           : Version 4
File size                                : 3.89 GiB
Duration                                 : 2 h 27 min
Overall bit rate                         : 3 772 kb/s
Encoded date                             : UTC 2019-02-10 19:52:40
Writing application                      : mkvmerge v29.0.0 ('Like It Or Not') 32-bit
Writing library                          : libebml v1.3.6 + libmatroska v1.4.9

Video
ID                                       : 1
Format                                   : AVC
Format/Info                              : Advanced Video Codec
Format profile                           : High@L3.1
Format settings                          : CABAC / 5 Ref Frames
Format settings, CABAC                   : Yes
Format settings, RefFrames               : 5 frames
Codec ID                                 : V_MPEG4/ISO/AVC
Duration                                 : 2 h 27 min
Bit rate                                 : 3 130 kb/s
Width                                    : 1 280 pixels
Height                                   : 544 pixels
Display aspect ratio                     : 2.35:1
Original display aspect ratio            : 2.35:1
Frame rate mode                          : Constant
Frame rate                               : 24.000 FPS
Color space                              : YUV
Chroma subsampling                       : 4:2:0
Bit depth                                : 8 bits
Scan type                                : Progressive
Bits/(Pixel*Frame)                       : 0.187
Stream size                              : 3.23 GiB (83%)
Default                                  : Yes
Forced                                   : No
Color range                              : Limited
Color primaries                          : BT.709
Transfer characteristics                 : BT.709
Matrix coefficients                      : BT.709

Audio
ID                                       : 3
Format                                   : E-AC-3
Format/Info                              : Enhanced AC-3
Commercial name                          : Dolby Digital Plus
Codec ID                                 : A_EAC3
Duration                                 : 2 h 27 min
Bit rate mode                            : Constant
Bit rate                                 : 640 kb/s
Channel(s)                               : 6 channels
Channel layout                           : L R C LFE Ls Rs
Sampling rate                            : 48.0 kHz
Frame rate                               : 31.250 FPS (1536 SPF)
Compression mode                         : Lossy
Stream size                              : 675 MiB (17%)
Service kind                             : Complete Main
Default                                  : Yes
Forced                                   : No

Text
ID                                       : 2
Format                                   : UTF-8
Codec ID                                 : S_TEXT/UTF8
Codec ID/Info                            : UTF-8 Plain Text
Duration                                 : 2 h 25 min
Bit rate                                 : 106 b/s
Count of elements                        : 3021
Stream size                              : 114 KiB (0%)
Title                                    : English [SDH]
Language                                 : English
Default                                  : No
Forced                                   : No


F2: Fun and Frustration (2019) Telugu - 720p - UNTOUCHED - AVC - DD5.1 - Esubs-TMVF2: Fun and Frustration (2019) Telugu - 720p - UNTOUCHED - AVC - DD5.1 - Esubs-TMVF2: Fun and Frustration (2019) Telugu - 720p - UNTOUCHED - AVC - DD5.1 - Esubs-TMVF2: Fun and Frustration (2019) Telugu - 720p - UNTOUCHED - AVC - DD5.1 - Esubs-TMVF2: Fun and Frustration (2019) Telugu - 720p - UNTOUCHED - AVC - DD5.1 - Esubs-TMVF2: Fun and Frustration (2019) Telugu - 720p - UNTOUCHED - AVC - DD5.1 - Esubs-TMVF2: Fun and Frustration (2019) Telugu - 720p - UNTOUCHED - AVC - DD5.1 - Esubs-TMVF2: Fun and Frustration (2019) Telugu - 720p - UNTOUCHED - AVC - DD5.1 - Esubs-TMV
SINGLE DIRECT FAST LINKS

https://www.heroupload.com/3f60b8100545364f/F2.2019.Telugu.WEB-DL.720p.UNTOUCHED.AVC.DD5.1.ESub-TMV.mkv


1GB LINKS


https://www.heroupload.com/4bf8bc3cf78144dd/F2.2019.Telugu.WEB-DL.720p.UNTOUCHED.AVC.DD5.1.ESub-TMV.part1.rar
https://www.heroupload.com/a682dd0556070058/F2.2019.Telugu.WEB-DL.720p.UNTOUCHED.AVC.DD5.1.ESub-TMV.part2.rar
https://www.heroupload.com/20cd3866efaf2048/F2.2019.Telugu.WEB-DL.720p.UNTOUCHED.AVC.DD5.1.ESub-TMV.part3.rar
https://www.heroupload.com/f03ceacfb2d67662/F2.2019.Telugu.WEB-DL.720p.UNTOUCHED.AVC.DD5.1.ESub-TMV.part4.rar



Buy Premium From My Links & Support Me

Add a comment

Name:* E-Mail:*
Bold Italic Underline Strike | Align left Center Align right | Insert smilies Insert link URLInsert protected URL Select color | Add Hidden Text Insert Quote Convert selected text from selection to Cyrillic (Russian) alphabet Insert spoiler
Enter the code below: *